音乐小达人
一代宗师

[2014] [香港] [灾难] [HDTV/HDrip] 救火英雄/特种救援英雄 As.The.Light.Goes.Out.2014.720p.HDTV.x264.AC3-SmY 4.52G

-->

内封中字

◎译  名 救火英雄/特种救援英雄   
◎片  名  As The Light Goes Out  
◎年  代 2014-01-03(中国大陆) / 2014-01-02(香港)  
◎国  家 中国大陆 / 香港     
◎类  别 剧情 / 动作 / 灾难    
◎语  言 汉语普通话    
◎字  幕 中文   
◎IMDB评分  Ratings:7.1/10  from 126 users   
◎IMDB链接  http://www.imdb.com/title/tt3414954/   
◎文件格式 x264+ AC3    
◎视频尺寸 1280X 536 
◎文件大小 1CD 4.52G    
◎片  长 116min    
◎导  演 郭子健  Derek Kwok  
◎主  演 谢霆锋  Nicholas Tse  ...........  何永森  
                     余文乐  Shawn Yue  .................游邦潮  
                     任达华 Simon Yam ...........  李培道  
                     胡军 Jun Hu  ......................海洋  
                     安志杰 Andy On .......................叶志辉  
                     陈伟霆 William Chan ......................  张永健  
                     白冰 Bing Bai ......................杨琳  
                     诗雅 Michelle .......................何永森女友  
                     廖启智 Kai Chi Liu ....................谭Sir  
                     谭耀文 Patrick Tam .......................万先生  
                     李晓楠  Ferry Lee                     吴浩康 Deep Ng  
                     冼色丽 Seli Xian   .............. 特别演出  
                     邵音音 Yam Yam Siu .................友情出演  
                     关智斌 Kenny Kwan  
                     洪卓立 Ken Hung  
                     王志飞 Zhifei Wang  
                     刘伟强 Wai Keung Lau  .........................友情出演                       
                     成龙 Jackie Chan ..........................消防宣传代言人  
   
   
   
◎简  介     
   
           平安夜,天气异常炎热,全城莫名诡谲。高负荷运转的发电站危机四伏,消防局严正以待。救火队员各自的满腹心事,让这场“硬战”充满了情感上的纠葛。 
何永森(谢霆锋 饰)、游邦潮(余文乐饰)、叶志辉(安志杰饰),三人是十年生死兄弟,如今却各怀心事:深得赏识的何永森被调离消防局,心有不甘;叶志辉玩转人际关系,升迁最快;游邦潮生性潇洒,不为人事所累,却遭遇坎坷婚姻。三兄弟间暗藏背叛的秘密更是让关系紧绷如弦。与此同时,内地超级消防员海洋(胡军饰)前来报到,作为香港消防局“新兵”,遭遇“老兵”培总(任达华 饰)明里暗里的刁难,而他自己也有着一个解不开的心结。  
危机终于来临,电站爆炸大火,香港陷入前所未有的一片黑暗。更有一群人被困火海,命悬一线。消防员走进伸手不见五指的黑暗环境,对抗致命浓烟侵袭,既要救人,又要应对手足斗争,还有队里高层为保稳妥的命令不时闪现。究竟是“一命换一命,救一个算一个”还是“遵守指令,以大局为重”。这场火,不只是拯救,亦是兄弟之间的救赎,将心魔而起蒙蔽心智的浓烟挥去。 

      Format : Matroska 
      File size : 4.52 GiB 
      Duration : 1h 56mn 
      Overall bit rate : 5 538 Kbps 
      Encoded date : UTC 2010-02-22 21:41:31 
      Writing application : mkvmerge v5.9.0 ('On The Loose') built on Dec  9 2012 15:37:01 
      Writing library : libebml v1.3.0 + libmatroska v1.4.0 
   Video #1 
      ID : 1 
      Format : AVC 
      Format/Info : Advanced Video Codec 
      Format profile : [email protected] 
      Format settings, CABAC : Yes 
      Format settings, ReFrames : 4 frames 
      Muxing mode : Container [email protected] 
      Codec ID : V_MPEG4/ISO/AVC 
      Duration : 1h 56mn 
      Bit rate : 5 044 Kbps 
      Nominal bit rate : 5 200 Kbps 
      Width : 1 280 pixels 
      Height : 536 pixels 
      Display aspect ratio : 2.35:1 
      Frame rate : 24.000 fps 
      Resolution : 8 bits 
      Colorimetry : 4:2:0 
      Scan type : Progressive 
      Bits/(Pixel*Frame) : 0.306 
      Stream size : 4.12 GiB (91%) 
      Writing library : x264 core 116 r2074 2641b9e 
       
   Audio #2 
      ID : 2 
      Format : AC-3 
      Format/Info : Audio Coding 3 
      Codec ID : A_AC3 
      Duration : 1h 56mn 
      Bit rate mode : Constant 
      Bit rate : 384 Kbps 
      Channel(s) : 2 channels 
      Channel positions : L R 
      Sampling rate : 44.1 KHz 
      Stream size : 321 MiB (7%)

电影截图: 
 
 
 
 
 


1 个附件 售价 大小 下载 时间

As.The.Light.Goes.Out.2014.720p.HDTV.x264.AC3-SmY.torrent 0 金币 93.68K 2372 次 2014-5-11

#1楼
发帖时间:2014-05-11 17:24:49   |   回复数:17
andyze
无名小卒
没怎么听说在影院里播过的好像
2014-5-11 #2楼
741013
隐世仙人♂
感谢楼主分享!支持 !
2014-5-11 #3楼
尊禾文化
小有名气
感谢楼主!!!!!!
2014-5-11 #4楼
小有名气
感谢楼主,但什么时候才有粤语原音呢
2014-5-11 #5楼
Marvel
小有名气
终于来了
2014-5-11 #6楼
彼德仔
江湖小虾
多谢你的分享
2014-5-11 #7楼
sh1024
江湖小虾
谢谢分享
2014-5-11 #8楼
kiyiwi
武林高手
感谢楼主分享
2014-5-11 #9楼
MR.zhong919
无名小卒
LZ 这是国语还是粤语的
2014-5-11 #10楼
xiongpipi
小有名气
感谢楼主分享好资源
2014-5-11 #11楼
尊禾文化
小有名气
感谢楼主!!!!!!!!!!!!!!!!!
2014-5-12 #12楼
ppdy0010
江湖小虾
看这个了还是2G的
2014-5-12 #13楼
jkwxdc
江湖小虾
终于来了,感谢楼主分享
2014-5-12 #14楼
xw_hylz
禁止发言
用户被禁言,帖子被屏蔽。
2014-5-12 #15楼
suyan9276
江湖小虾
多谢分享!!!
2014-5-12 #16楼
hfaye
小有名气
我想睇白话原声啊
2014-5-13 #17楼
vivi1988ts
小有名气
感谢楼主分享
2015-2-3 #18楼
游客组