aoloffline
版主

[2011] [欧美] [战争] [BD-1080P] 英雄时代 Age.of.Heroes.2011.1080p.BluRay.x264.DD5.1-FGT 6.55GB

-->

Age.of.Heroes.2011.1080p.BluRay.x264.DD5.1-FGT

◎译  名 英雄时代

◎片  名 Age of Heroes

◎年  代 2011

◎国  家 英国

◎类  别 动作/战争/惊悚/冒险

◎语  言 英语

◎上映日期 2011-05-20(英国)

◎IMDb评分  5.6/10 from 7,879 users

◎IMDb链接  http://www.imdb.com/title/tt1590950/

◎豆瓣评分 5.0/10 from 999 users

◎豆瓣链接 http://movie.douban.com/subject/5157188/

◎片  长 90分钟

◎导  演 Adrian Vitoria

◎主  演 肖恩·宾 Sean Bean

      丹尼·戴尔 Danny Dyer

      阿卡塞尔·亨涅 Aksel Hennie

      伊莎贝拉·米珂 Izabella Miko

      詹姆斯·达西 James D'Arcy

      威廉·休斯顿 William Houston

      John Dagleish


◎简  介


  1940年5月,下士雷恩斯(丹尼·戴尔 Danny Dyer 饰)和他的三个战友在向敦刻尔克撤退的途中,被一名长官要求参与阻击德国军队,雷恩斯违抗命令,被关入军事监狱。在海军情报处,少校琼斯(肖恩·宾 Sean Bean 饰)接到一项高度机密的任务:当时德国的雷达技术领先于欧洲各国,遍布大西洋沿岸的雷达站形成了一张无形的网,琼斯受命组建一支特种部队,以破坏掉德国的接收站。琼斯在军事监狱中捞出了老部下莱林,并“顺路”带走了雷恩斯。在苏格兰的高地上,琼斯对雷恩斯等特战队员进行了严格的训练,此次任务只有一次机会,前期的不足就能导致满盘皆输的结局。特战队终于登陆挪威,并与当地游击队取得联系,最后的考验正式开始……



Video
ID                                       : 1
Format                                   : AVC
Format/Info                              : Advanced Video Codec
Format profile                           : [email protected]
Format settings, CABAC                   : Yes
Format settings, ReFrames                : 5 frames
Codec ID                                 : V_MPEG4/ISO/AVC
Duration                                 : 1h 33mn
Bit rate                                 : 9 379 Kbps
Width                                    : 1 920 pixels
Height                                   : 816 pixels
Display aspect ratio                     : 2.35:1
Frame rate mode                          : Constant
Frame rate                               : 24.000 fps
Color space                              : YUV
Chroma subsampling                       : 4:2:0
Bit depth                                : 8 bits
Scan type                                : Progressive
Bits/(Pixel*Frame)                       : 0.249
Stream size                              : 6.00 GiB (92%)
Writing library                          : x264 core 130 r2273 b3065e6
Encoding settings                        : cabac=1 / ref=5 / deblock=1:-3:-3 / analyse=0x3:0x133 / me=umh / subme=11 / psy=1 / psy_rd=1.00:0.10 / mixed_ref=1 / me_range=32 / chroma_me=1 / trellis=2 / 8x8dct=1 / cqm=0 / deadzone=21,11 / fast_pskip=1 / chroma_qp_offset=-3 / threads=6 / lookahead_threads=1 / sliced_threads=0 / nr=0 / decimate=1 / interlaced=0 / bluray_compat=0 / constrained_intra=0 / bframes=8 / b_pyramid=2 / b_adapt=2 / b_bias=0 / direct=3 / weightb=1 / open_gop=0 / weightp=2 / keyint=250 / keyint_min=23 / scenecut=40 / intra_refresh=0 / rc_lookahead=60 / rc=2pass / mbtree=1 / bitrate=9379 / ratetol=1.0 / qcomp=0.60 / qpmin=0 / qpmax=69 / qpstep=4 / cplxblur=20.0 / qblur=0.5 / ip_ratio=1.40 / aq=1:1.00
Language                                 : English
Default                                  : Yes
Forced                                   : No

Audio
ID                                       : 2
Format                                   : AC-3
Format/Info                              : Audio Coding 3
Mode extension                           : CM (complete main)
Format settings, Endianness              : Big
Codec ID                                 : A_AC3
Duration                                 : 1h 33mn
Bit rate mode                            : Constant
Bit rate                                 : 640 Kbps
Channel(s)                               : 6 channels
Channel positions                        : Front: L C R, Side: L R, LFE
Sampling rate                            : 48.0 KHz
Compression mode                         : Lossy
Stream size                              : 428 MiB (6%)
Language                                 : English
Default                                  : Yes
Forced                                   : No

Text #1
ID                                       : 3
Format                                   : UTF-8
Codec ID                                 : S_TEXT/UTF8
Codec ID/Info                            : UTF-8 Plain Text
Language                                 : English
Default                                  : No
Forced                                   : No

Text #2
ID                                       : 4
Format                                   : UTF-8
Codec ID                                 : S_TEXT/UTF8
Codec ID/Info                            : UTF-8 Plain Text
Language                                 : Spanish
Default                                  : No
Forced                                   : No

Text #3
ID                                       : 5
Format                                   : UTF-8
Codec ID                                 : S_TEXT/UTF8
Codec ID/Info                            : UTF-8 Plain Text
Language                                 : Portuguese
Default                                  : No
Forced                                   : No

Text #4
ID                                       : 6
Format                                   : UTF-8
Codec ID                                 : S_TEXT/UTF8
Codec ID/Info                            : UTF-8 Plain Text
Language                                 : Dutch
Default                                  : No
Forced                                   : No

Text #5
ID                                       : 7
Format                                   : UTF-8
Codec ID                                 : S_TEXT/UTF8
Codec ID/Info                            : UTF-8 Plain Text
Language                                 : Finnish
Default                                  : No
Forced                                   : No

Text #6
ID                                       : 8
Format                                   : UTF-8
Codec ID                                 : S_TEXT/UTF8
Codec ID/Info                            : UTF-8 Plain Text
Language                                 : Lithuanian
Default                                  : No
Forced                                   : No

Text #7
ID                                       : 9
Format                                   : UTF-8
Codec ID                                 : S_TEXT/UTF8
Codec ID/Info                            : UTF-8 Plain Text
Language                                 : Hebrew
Default                                  : No
Forced                                   : No

Menu
00:00:00.000                             : en:Chapter 01
00:08:54.290                             : en:Chapter 02
00:15:46.791                             : en:Chapter 03
00:22:34.583                             : en:Chapter 04
00:31:46.708                             : en:Chapter 05
00:39:02.458                             : en:Chapter 06
00:46:05.291                             : en:Chapter 07
00:52:28.416                             : en:Chapter 08
01:02:27.083                             : en:Chapter 09
01:11:40.082                             : en:Chapter 10
01:20:46.625                             : en:Chapter 11
01:29:19.416                             : en:Chapter 12





1 个附件 售价 大小 下载 时间

Age.of.Heroes.2011.1080p.BluRay.x264.DD5.1-FGT.torrent 0 金币 66.08K 2862 次 2015-10-21

#1楼
发帖时间:2015-10-21 18:56:26   |   回复数:3
liyouchai
隐世仙人♂
谢谢楼主分享资源
2015-10-21 #2楼
zhao_paul
一代宗师
多谢楼主分享,辛苦了!
2015-10-22 #3楼
blue23
隐世仙人♂
感谢楼主分享
2015-10-22 #4楼
游客组