aoloffline
版主

[更 早] [欧美] [奇幻] [BD-1080P] 第六感生死缘/情约今生/第六感生死恋 Meet.Joe.Black.1998.1080p.BluRay.x264-FHD 12.15GB

-->

Meet.Joe.Black.1998.1080p.BluRay.x264-FHD

◎译  名 第六感生死缘/情约今生(港)/第六感生死恋/遇见死神

◎片  名 Meet Joe Black

◎年  代 1998

◎国  家 美国

◎类  别 剧情/奇幻/悬疑/爱情

◎语  言 英语

◎上映日期 1998-11-13

◎IMDb评分  7.1/10 from 159,151 users

◎IMDb链接  http://www.imdb.com/title/tt0119643/

◎豆瓣评分 7.8/10 from 36,419 users

◎豆瓣链接 http://movie.douban.com/subject/1299769/

◎片  长 178 分钟

◎导  演 马丁·布莱斯 Martin Brest

◎主  演 布拉德·皮特 Brad Pitt

      安东尼·霍普金斯 Anthony Hopkins

      克莱尔·弗兰妮 Claire Forlani

      杰克·韦伯 Jake Weber

      马西娅·盖伊·哈登 Marcia Gay Harden


◎简  介


  也许在爱情的天平上,神与人是平等的。

  死神为了体验人世的悲欢,化身翩翩少年Joe Black(布拉德•皮特 Brad Pitt 饰) 降落到新闻媒体大亨William Parrish(安东尼•霍普金斯 Anthony Hopkins 饰)的家中。机缘巧合,Joe爱上了William的小女儿Susan (克莱尔•馥兰妮 Claire Forlani饰),品尝到人世间爱情的甘醇。这孩子般纯真的,迷恋花生酱的翩翩死神与他美丽端庄的,拥有夜色深邃眼睛的女孩会有着什么样不同寻常的奇遇?他们把爱情谱成乐章,邀你我一同聆听。



Video
ID                                       : 1
Format                                   : AVC
Format/Info                              : Advanced Video Codec
Format profile                           : High@L4.1
Format settings, CABAC                   : Yes
Format settings, ReFrames                : 4 frames
Codec ID                                 : V_MPEG4/ISO/AVC
Duration                                 : 3h 0mn
Bit rate                                 : 8 128 Kbps
Width                                    : 1 920 pixels
Height                                   : 1 040 pixels
Display aspect ratio                     : 1.85:1
Frame rate mode                          : Constant
Frame rate                               : 23.976 fps
Color space                              : YUV
Chroma subsampling                       : 4:2:0
Bit depth                                : 8 bits
Scan type                                : Progressive
Bits/(Pixel*Frame)                       : 0.170
Stream size                              : 10.0 GiB (82%)
Writing library                          : x264 core 112 r1867 22bfd31
Encoding settings                        : cabac=1 / ref=4 / deblock=1:0:0 / analyse=0x3:0x113 / me=umh / subme=7 / psy=1 / psy_rd=1.00:0.00 / mixed_ref=1 / me_range=16 / chroma_me=1 / trellis=1 / 8x8dct=1 / cqm=0 / deadzone=21,11 / fast_pskip=0 / chroma_qp_offset=-2 / threads=6 / sliced_threads=0 / nr=0 / decimate=1 / interlaced=0 / constrained_intra=0 / bframes=3 / b_pyramid=2 / b_adapt=1 / b_bias=0 / direct=1 / weightb=1 / open_gop=0 / weightp=2 / keyint=250 / keyint_min=23 / scenecut=40 / intra_refresh=0 / rc_lookahead=40 / rc=2pass / mbtree=1 / bitrate=8128 / ratetol=1.0 / qcomp=0.60 / qpmin=0 / qpmax=51 / qpstep=4 / cplxblur=20.0 / qblur=0.5 / ip_ratio=1.40 / aq=1:1.00
Language                                 : English
Default                                  : Yes
Forced                                   : No

Audio
ID                                       : 2
Format                                   : DTS
Format/Info                              : Digital Theater Systems
Mode                                     : 16
Format settings, Endianness              : Big
Codec ID                                 : A_DTS
Duration                                 : 3h 0mn
Bit rate mode                            : Constant
Bit rate                                 : 1 509 Kbps
Channel(s)                               : 6 channels
Channel positions                        : Front: L C R, Side: L R, LFE
Sampling rate                            : 48.0 KHz
Bit depth                                : 24 bits
Compression mode                         : Lossy
Stream size                              : 1.90 GiB (16%)
Title                                    : DTS 5.1
Language                                 : English
Default                                  : Yes
Forced                                   : No





1 个附件 售价 大小 下载 时间

Meet.Joe.Black.1998.1080p.BluRay.x264-FHD.torrent 0 金币 61.33K 4816 次 2015-11-3

#1楼
发帖时间:2015-11-03 20:14:52   |   回复数:5
liyouchai
超凡入圣№
谢谢楼主分享资源
2015-11-4 #2楼
wuyuanshiyuan
武林高手
好年轻的皮特.
2015-11-4 #3楼
wrcgww
一派掌门
谢谢楼主精彩分享
2015-11-4 #4楼
blue23
隐世仙人♂
感谢楼主分享
2015-11-4 #5楼
zhao_paul
一代宗师
谢谢楼主分享<情约今生>!
5天前 #6楼
游客组