aoloffline
版主

[2011] [欧美] [爱情] [BD-1080P] 迷魂药 Ecstasy.2011.1080p.BluRay.x264.DTS-FGT 5.02GB

-->

Ecstasy.2011.1080p.BluRay.x264.DTS-FGT

◎译  名 迷魂药

◎片  名 Irvine Welsh's Ecstasy

◎年  代 2011

◎国  家 加拿大

◎类  别 剧情/爱情

◎语  言 英语

◎上映日期 2011-10-28 (UK)

◎IMDb评分  5.1/10 from 1,462 users

◎IMDb链接  http://www.imdb.com/title/tt1809287/

◎豆瓣评分 5.6/10 from 27 users

◎豆瓣链接 http://movie.douban.com/subject/6797478/

◎片  长 99

◎导  演 Rob Heydon

◎主  演 克斯汀·克鲁克

      亚当·辛克莱尔

      比利·博伊德

      Carlo Rota


◎简  介


  海瑟·汤普森(克斯汀·克鲁克)是一名家庭主妇,和性情冷淡的丈夫生活在郊区,两人之间毫无感情。忍无可忍的海瑟终于决定离家出走。在一间夜店,她遇到了过了很多年派对狂生活的劳埃德·布伊斯特(亚当辛克莱尔),后者是一名瘾君子。海瑟在劳埃德的身上找到了她迫切寻找的东西,两个人坠入爱河。然而,海瑟很难分辨出这种感觉究竟是毒品,还是爱情。

  影片还有另外一条主线,劳埃德由于欠债而被一位名叫做索罗(卡罗·洛塔)的神秘人物追杀,后者交给了他贩毒的任务。行动进行的很糟糕,差点让他失去海瑟,劳埃德终于幡然悔悟,决定改邪归正。然而这一切是否来的太晚?

  幕后制作

  《迷魂药》(Ecstasy)改编自埃尔文·威尔什(Irvine Welsh)的短篇小说《不败之身》(The Undefeated),后者也是90年代关于毒品的经典影片《猜火车》的小说原作者和编剧。《迷魂药》由加拿大演罗博·海顿(Rob Heydon)执导,他曾经执导过100多部广告和MV以及纪录片《走的更远》,但本片是他的剧情长片处女秀。

  《不败之身》来自于威尔什1996年发表的短片集《Ecstasy》,全名是《Ecstasy: Three Tales of Chemical Romance 》(狂迷:关于化学罗曼史的三个故事),这里的“化学罗曼史”显然指的是毒品。《不败之身》是其中最长的一片故事,讲述了一名瘾君子与一名家庭主妇在夜店里相遇而发生的故事。这本书发表后不久就被加拿大剧作家Keith Wyatt改变成舞台剧,在加拿大和爱丁堡等地演出获得了巨大的成功。埃尔文·威尔什本人也观看了舞台剧的版本,表示这是对他的作品“最优秀的改编”。早在2000年,加拿大导演罗博·海顿就买下了短篇小说的电影改编版权,计划把它搬上银幕,但为了筹集资金以及让剧本得到威尔什本人的认可,他最终花了10年时间直到2011年才把电影拍成。


Video
ID                                       : 1
Format                                   : AVC
Format/Info                              : Advanced Video Codec
Format profile                           : [email protected]
Format settings, CABAC                   : Yes
Format settings, ReFrames                : 4 frames
Codec ID                                 : V_MPEG4/ISO/AVC
Duration                                 : 1h 44mn
Bit rate                                 : 5 249 Kbps
Width                                    : 1 920 pixels
Height                                   : 1 080 pixels
Display aspect ratio                     : 16:9
Frame rate mode                          : Constant
Frame rate                               : 23.976 fps
Color space                              : YUV
Chroma subsampling                       : 4:2:0
Bit depth                                : 8 bits
Scan type                                : Progressive
Bits/(Pixel*Frame)                       : 0.106
Stream size                              : 3.82 GiB (76%)
Writing library                          : x264 core 129 r2230 1cffe9f
Encoding settings                        : cabac=1 / ref=4 / deblock=1:-1:-1 / analyse=0x3:0x113 / me=umh / subme=7 / psy=1 / psy_rd=1.00:0.15 / mixed_ref=1 / me_range=16 / chroma_me=1 / trellis=1 / 8x8dct=1 / cqm=0 / deadzone=21,11 / fast_pskip=0 / chroma_qp_offset=-3 / threads=18 / lookahead_threads=3 / sliced_threads=0 / nr=0 / decimate=1 / interlaced=0 / bluray_compat=0 / constrained_intra=0 / bframes=3 / b_pyramid=2 / b_adapt=1 / b_bias=0 / direct=1 / weightb=1 / open_gop=0 / weightp=2 / keyint=250 / keyint_min=23 / scenecut=40 / intra_refresh=0 / rc_lookahead=40 / rc=crf / mbtree=1 / crf=20.0 / qcomp=0.60 / qpmin=0 / qpmax=69 / qpstep=4 / ip_ratio=1.40 / aq=1:1.00
Language                                 : English
Default                                  : Yes
Forced                                   : No

Audio
ID                                       : 2
Format                                   : DTS
Format/Info                              : Digital Theater Systems
Mode                                     : 16
Format settings, Endianness              : Big
Codec ID                                 : A_DTS
Duration                                 : 1h 44mn
Bit rate mode                            : Constant
Bit rate                                 : 1 509 Kbps
Channel(s)                               : 6 channels
Channel positions                        : Front: L C R, Side: L R, LFE
Sampling rate                            : 48.0 KHz
Bit depth                                : 24 bits
Compression mode                         : Lossy
Stream size                              : 1.10 GiB (22%)
Language                                 : English
Default                                  : Yes
Forced                                   : No





1 个附件 售价 大小 下载 时间

Ecstasy.2011.1080p.BluRay.x264.DTS-FGT.torrent 0 金币 50.75K 2572 次 2015-12-6

#1楼
发帖时间:2015-12-06 20:58:53   |   回复数:3
liyouchai
隐世仙人♂
谢谢楼主分享资源
2015-12-6 #2楼
blue23
隐世仙人♂
感谢楼主分享
2015-12-10 #3楼
zhao_paul
一代宗师
多谢楼主分享影片,辛苦了!
2016-5-11 #4楼
游客组