只发高清
一代宗师

[2007] [香港] [动作] [HDTV/HDrip] [BT下载][双子神偷]Twins.Mission.2007.HDTV.720P.x264.AC3-Y4DG[国语无字/2.3G]

-->

Image

◎译  名 双子神偷

◎片  名 Twins Mission

◎年  代 2007

◎地  区 中国香港

◎类  别 动作/喜剧

◎语       言  普通话

◎导  演 江道海 To-hoi Kong

◎主  演 洪金宝 Sammo Hung

      钟欣桐 Gillian Chung

      蔡卓妍 Charlene Choi

      张致恒 Steven Cheung

      李灿森 Sam Lee

      元华 Wah Yuen

      石修 Shek Sau

      吴京 Jacky Wu ..... Hey

      张茜 Jess Zhang

 

 

◎简  介 

  从小被喇嘛收养的刘曦,与养父吉祥一同护送“贡佛天珠”,途中被一班神秘人将“天珠”盗走。吉祥怀疑那一班神秘人与消声匿迹多年的“双子门”有关,于是找“双子门”传人“校长常忠”出手帮忙。

 

  一名叫小周的男子跳楼自杀,背后却隐藏着“双子门”之行凶手法……

 

  为重组“双子门”,吉祥与校长常忠开始地狱式重新训练刘曦,他又从马戏团中召集回来双胞胎姐妹珍”、宝珠与其余学生,但叮嘱他们在寻回“天珠”后,便不能再使用所学到之“双子门” 绝技。

 

  珍珠与宝珠锲而不舍打探,发现“天珠”下落,却遇上神秘“双子门”中人,各人为了抢夺“天珠”大打出手。最后刘曦竟然夺回来之 “天珠”,误交给与校长常忠长得一模一样之常勇。“天珠”、校长常忠和常勇背后到底隐藏着什么秘密、什么阴谋……

 

  《双子神偷》的故事由佛家至宝“贡佛天珠”展开。吉祥(洪金宝饰)、刘曦(吴京饰)护送贡佛天珠来港途中被四名武功高强的人物抢走。最令人感到惊讶的是四人面貌竟如同二人出现,因这四名怪客竟同是孪生兄弟。双子门的奇门武术早于数十年前令人闻风丧胆,源起武术宗派渐渐演变成怪异组职,有说是正,有说亦邪。双子门是一班双生儿利用本身心灵相通,练就一些特异武术,且能利用样貌相似而制造劫案不在场证据,掩人耳目等特质作案的集团,多年前曾活跃一时,近年已销声匿迹。为了这一颗神物贡佛天珠,他们重现江湖。于是,刘曦找来昔日训练双子门的校长常忠(元华饰)和其他兄弟姊妹来协助寻回天珠,来一个正邪对决,双子门力拼双子门。本来,常忠早已退休,而珍珠(蔡卓妍饰)、宝珠(钟欣桐饰)早已是马戏团中享负盛名的空中飞人,其余的Marco、Polo;阿猫、阿狗在杂耍界也薄有名气。他们很快便查得天珠下落,可是,却惹来死敌突如其来的袭击。虽然他们化险为夷,可惜天珠得而复失,再次落在邪恶的双子门手中。原来,常勇是常忠的双生弟弟,他讹称天珠能治绝症来骗取心急为妹妹治病的女富商李瑶(张茜饰)。珍珠、宝珍等人不惜身陷险境,终于,查得天珠藏于常勇的大本营,而常勇更胁持李瑶的妹妹Happy作人质。最后,他们各尽所长,成功夺回天珠,还救回Happy的生命。

 

[code]

General

Unique ID                      : 224719236409386230660594917560031142823 (0xA90F59C4125CBDDBA1BDCBF467DC63A7)

Complete name                  : D:\[双子神偷].CCTV6HD.Twins.Mission.2007.HDTV.720p.x264.AC3-Y4DG.mkv

Format                         : Matroska

Format version                 : Version 4 / Version 2

File size                      : 2.30 GiB

Duration                       : 1h 35mn

Overall bit rate               : 3 450 Kbps

Encoded date                   : UTC 2015-12-25 08:30:02

Writing application            : mkvmerge v7.1.0 ('Good Love') 64bit built on Jul 27 2014 13:06:55

Writing library                : libebml v1.3.0 + libmatroska v1.4.1

DURATION                       : 01:35:24.576000000

NUMBER_OF_FRAMES               : 178893

NUMBER_OF_BYTES                : 320576256

_STATISTICS_WRITING_APP        : mkvmerge v7.1.0 ('Good Love') 64bit built on Jul 27 2014 13:06:55

_STATISTICS_WRITING_DATE_UTC   : 2015-12-25 08:30:02

_STATISTICS_TAGS               : BPS DURATION NUMBER_OF_FRAMES NUMBER_OF_BYTES

 

Video

ID                             : 1

Format                         : AVC

Format/Info                    : Advanced Video Codec

Format profile                 : [email protected]

Format settings, CABAC         : Yes

Format settings, ReFrames      : 8 frames

Codec ID                       : V_MPEG4/ISO/AVC

Duration                       : 1h 35mn

Bit rate                       : 3 000 Kbps

Width                          : 1 280 pixels

Height                         : 720 pixels

Display aspect ratio           : 16:9

Frame rate mode                : Constant

Frame rate                     : 25.000 fps

Color space                    : YUV

Chroma subsampling             : 4:2:0

Bit depth                      : 8 bits

Scan type                      : Progressive

Bits/(Pixel*Frame)             : 0.130

Stream size                    : 1.95 GiB (85%)

Writing library                : x264 core 128 r2216+688+32 a17ff54 tMod [[email protected]:2:0 X86]

Encoding settings              : cabac=1 / ref=8 / deblock=1:-3:-3 / analyse=0x3:0x133 / me=umh / subme=10 / psy=1 / fade_compensate=0.00 / psy_rd=1.00:0.00 / mixed_ref=1 / me_range=48 / chroma_me=1 / trellis=2 / 8x8dct=1 / cqm=0 / deadzone=21,11 / fast_pskip=0 / chroma_qp_offset=-4 / threads=6 / lookahead_threads=1 / sliced_threads=0 / nr=0 / decimate=1 / interlaced=0 / bluray_compat=0 / constrained_intra=0 / fgo=0 / bframes=6 / b_pyramid=2 / b_adapt=2 / b_bias=0 / direct=1 / weightb=1 / open_gop=0 / weightp=2 / keyint=250 / keyint_min=25 / scenecut=40 / intra_refresh=0 / rc_lookahead=40 / rc=2pass / mbtree=1 / bitrate=3000 / ratetol=1.0 / qcomp=0.60 / qpmin=0 / qpmax=69 / qpstep=4 / cplxblur=20.0 / qblur=0.5 / vbv_maxrate=50000 / vbv_bufsize=50000 / nal_hrd=none / ip_ratio=1.40 / aq=1:1.00

Language                       : English

Default                        : Yes

Forced                         : No

DURATION                       : 01:35:24.600000000

NUMBER_OF_FRAMES               : 143115

NUMBER_OF_BYTES                : 2146532038

_STATISTICS_WRITING_APP        : mkvmerge v7.1.0 ('Good Love') 64bit built on Jul 27 2014 13:06:55

_STATISTICS_WRITING_DATE_UTC   : 2015-12-25 08:30:02

_STATISTICS_TAGS               : BPS DURATION NUMBER_OF_FRAMES NUMBER_OF_BYTES

 

Audio

ID                             : 2

Format                         : AC-3

Format/Info                    : Audio Coding 3

Mode extension                 : CM (complete main)

Format settings, Endianness    : Big

Codec ID                       : A_AC3

Duration                       : 1h 35mn

Bit rate mode                  : Constant

Bit rate                       : 448 Kbps

Channel(s)                     : 2 channels

Channel positions              : Front: L R

Sampling rate                  : 48.0 KHz

Compression mode               : Lossy

Delay relative to video        : 18ms

Stream size                    : 306 MiB (13%)

Language                       : English

Default                        : Yes

Forced                         : No[/code]

Image

 



1 个附件 售价 大小 下载 时间

双子神偷.2007.国语无字£Y4DG惊鸿一面.torrent 0 金币 12.68K 8993 次 2015-12-30

#1楼
发帖时间:2015-12-30 12:42:47   |   回复数:4
yangbo83222179
一代宗师
谢谢楼主分享,支持一下
2015-12-30 #2楼
jokingcheung
一代宗师
谢谢分享
2015-12-30 #3楼
liyouchai
隐世仙人♂
谢谢楼主分享资源
2015-12-30 #4楼
blue23
隐世仙人♂
感谢楼主分享
2015-12-31 #5楼
游客组