aoloffline
超凡入圣№

[2011] [泰国] [纪录] [BD-1080P] [BT下载]飞翔的艺术/飞翔的极限 The.Art.of.Flight.2011.DOCU.1080p.Bluray.x264-MOMENTUM 5.4GB

-->

The.Art.of.Flight.2011.DOCU.1080p.Bluray.x264-MOMENTUM

◎译  名 飞翔的艺术/飞翔的极限/飞翔艺术

◎片  名 The Art of Flight

◎年  代 2011

◎国  家 美国

◎类  别 纪录片

◎语  言 英语

◎上映日期 2011-09-08(美国)

◎IMDb评分  8.3/10 from 6,385 users

◎IMDb链接  http://www.imdb.com/title/tt1646967/

◎豆瓣评分 8.7/10 from 3,223 users

◎豆瓣链接 http://movie.douban.com/subject/6873875/

◎片  长 80分钟

◎导  演 Curt Morgan

◎主  演 Jake Blauvelt


◎简  介


  本部纪录片是一部关于极限运动滑雪的影片。经过两年的摄制,《飞翔的艺术》将为您呈现一出标新立异的“雪山飞魂”。

  滑雪高手特拉维斯和他的朋友们正在改写和重新定义所谓不可能滑雪的地方。这群不要命的疯子,在世界各地的地方进行着滑雪运动,从阿拉斯加到南美安第斯山脉,从莽莽高山之中到皑皑白雪之上。他们正在尝试体验下一次极限的超越,试图挖掘出未曾踏足的任何一处角落。在影片中,你或许会为触目惊心的一幕而心跳加速,又或许被毕生难忘的冰雪王国所震撼不已。滑雪运动,这的确是一项勇敢者的游戏,当然也是一次有关飞翔的艺术。


Video
ID                                       : 1
Format                                   : AVC
Format/Info                              : Advanced Video Codec
Format profile                           : [email protected]
Format settings, CABAC                   : Yes
Format settings, ReFrames                : 4 frames
Codec ID                                 : V_MPEG4/ISO/AVC
Duration                                 : 1h 20mn
Bit rate                                 : 9 066 Kbps
Width                                    : 1 920 pixels
Height                                   : 1 080 pixels
Display aspect ratio                     : 16:9
Frame rate mode                          : Constant
Frame rate                               : 23.976 (24000/1001) fps
Color space                              : YUV
Chroma subsampling                       : 4:2:0
Bit depth                                : 8 bits
Scan type                                : Progressive
Bits/(Pixel*Frame)                       : 0.182
Stream size                              : 4.99 GiB (91%)
Writing library                          : x264 core 118 r2085 8a62835
Encoding settings                        : cabac=1 / ref=4 / deblock=1:-1:-1 / analyse=0x3:0x133 / me=umh / subme=9 / psy=1 / psy_rd=1.00:0.15 / mixed_ref=1 / me_range=16 / chroma_me=1 / trellis=2 / 8x8dct=1 / cqm=0 / deadzone=21,11 / fast_pskip=1 / chroma_qp_offset=-3 / threads=14 / sliced_threads=0 / nr=0 / decimate=1 / interlaced=0 / bluray_compat=0 / constrained_intra=0 / bframes=3 / b_pyramid=2 / b_adapt=1 / b_bias=0 / direct=3 / weightb=1 / open_gop=0 / weightp=2 / keyint=240 / keyint_min=24 / scenecut=40 / intra_refresh=0 / rc_lookahead=40 / rc=2pass / mbtree=1 / bitrate=9066 / ratetol=1.0 / qcomp=0.60 / qpmin=0 / qpmax=69 / qpstep=4 / cplxblur=20.0 / qblur=0.5 / ip_ratio=1.40 / aq=1:1.00
Language                                 : English
Default                                  : No
Forced                                   : No

Audio
ID                                       : 2
Format                                   : AC-3
Format/Info                              : Audio Coding 3
Mode extension                           : CM (complete main)
Format settings, Endianness              : Big
Codec ID                                 : A_AC3
Duration                                 : 1h 20mn
Bit rate mode                            : Constant
Bit rate                                 : 640 Kbps
Channel(s)                               : 6 channels
Channel positions                        : Front: L C R, Side: L R, LFE
Sampling rate                            : 48.0 KHz
Frame rate                               : 31.250 fps (1536 spf)
Compression mode                         : Lossy
Stream size                              : 369 MiB (7%)
Language                                 : English
Default                                  : Yes
Forced                                   : No





1 个附件 售价 大小 下载 时间

The.Art.of.Flight.2011.DOCU.1080p.Bluray.x264-MOMENTUM.torrent 0 金币 55.24K 4954 次 2016-2-13

#1楼
发帖时间:2016-02-13 20:37:54   |   回复数:6
blue23
隐世仙人♂
感谢楼主分享
2016-2-13 #2楼
liyouchai
隐世仙人♂
谢谢楼主分享资源
2016-2-13 #3楼
fanyongfu804975
武林盟主
谢谢分享。
2016-2-14 #4楼
jokingcheung
一代宗师
谢谢分享
2016-2-28 #5楼
zangkeli
武林高手
感谢楼主分享!!
2016-10-2 #6楼
chulps
一代宗师
~ 感谢分享 ~
2018-6-4 #7楼
游客组