aoloffline
版主

[2012] [欧美] [惊悚] [BD-1080P] [BT下载]笑脸杀手 Smiley.2012.1080p.BluRay.x264.DTS-FGT 4.64GB

-->

Smiley.2012.1080p.BluRay.x264.DTS-FGT

◎译  名 笑脸杀手

◎片  名 Smiley

◎年  代 2012

◎国  家 美国

◎类  别 剧情/惊悚/恐怖

◎语  言 英语

◎上映日期 2012-10-12(美国)

◎IMDb评分  3.5/10 from 7,024 users

◎IMDb链接  http://www.imdb.com/title/tt2025667/

◎豆瓣评分 4.0/10 from 105 users

◎豆瓣链接 https://movie.douban.com/subject/10558292/

◎BT之家整理 http://www.btbtt.co 

◎片  长 90分钟

◎导  演 Michael J. Gallagher

◎主  演 Caitlin Gerard

      Melanie Papalia

      Shane Dawson


◎简  介


  一个精神脆弱的大学女生:阿什莉,得知了一个都市传说,那就是通过网络可以召唤一名叫“Smiley”的疯狂连环杀手。之后,她必须决定,要么慢慢失去自己的理智,要么成为Smiley的下一个受害者。


Video
ID                                       : 1
Format                                   : AVC
Format/Info                              : Advanced Video Codec
Format profile                           : High@L4.1
Format settings, CABAC                   : Yes
Format settings, ReFrames                : 4 frames
Codec ID                                 : V_MPEG4/ISO/AVC
Duration                                 : 1h 35mn
Bit rate                                 : 5 326 Kbps
Width                                    : 1 920 pixels
Height                                   : 1 080 pixels
Display aspect ratio                     : 16:9
Frame rate mode                          : Constant
Frame rate                               : 23.976 (24000/1001) fps
Color space                              : YUV
Chroma subsampling                       : 4:2:0
Bit depth                                : 8 bits
Scan type                                : Progressive
Bits/(Pixel*Frame)                       : 0.107
Stream size                              : 3.55 GiB (76%)
Writing library                          : x264 core 140 r2377 1ca7bb9
Encoding settings                        : cabac=1 / ref=4 / deblock=1:-1:-1 / analyse=0x3:0x133 / me=umh / subme=7 / psy=1 / psy_rd=1.00:0.15 / mixed_ref=1 / me_range=16 / chroma_me=1 / trellis=1 / 8x8dct=1 / cqm=0 / deadzone=21,11 / fast_pskip=0 / chroma_qp_offset=-3 / threads=18 / lookahead_threads=3 / sliced_threads=0 / nr=0 / decimate=1 / interlaced=0 / bluray_compat=0 / constrained_intra=0 / bframes=3 / b_pyramid=2 / b_adapt=1 / b_bias=0 / direct=3 / weightb=1 / open_gop=0 / weightp=2 / keyint=240 / keyint_min=23 / scenecut=40 / intra_refresh=0 / rc_lookahead=40 / rc=crf / mbtree=1 / crf=20.0 / qcomp=0.60 / qpmin=10 / qpmax=69 / qpstep=4 / ip_ratio=1.40 / aq=1:1.00
Language                                 : English
Default                                  : Yes
Forced                                   : No

Audio
ID                                       : 2
Format                                   : DTS
Format/Info                              : Digital Theater Systems
Mode                                     : 16
Format settings, Endianness              : Big
Codec ID                                 : A_DTS
Duration                                 : 1h 35mn
Bit rate mode                            : Constant
Bit rate                                 : 1 509 Kbps
Channel(s)                               : 6 channels
Channel positions                        : Front: L C R, Side: L R, LFE
Sampling rate                            : 48.0 KHz
Frame rate                               : 93.750 fps (512 spf)
Bit depth                                : 16 bits
Compression mode                         : Lossy
Stream size                              : 1.00 GiB (22%)
Language                                 : English
Default                                  : No
Forced                                   : No




#1楼
发帖时间:2016-05-21 09:05:53   |   回复数:4
无尽的寒冬
武林高手
下载链接在哪?
2016-5-21 #2楼
yangbo83222179
一代宗师
谢谢楼主分享,支持一下
2016-5-21 #3楼
blue23
隐世仙人♂
感谢楼主分享
2016-5-21 #4楼
zhao_paul
一代宗师
感谢楼主分享《笑脸杀手》!
3天前 #5楼
游客组