aoloffline
版主

[2011] [欧美] [其他] [BD-1080P] [BT下载]皮威百老汇秀 The.Pee-wee.Herman.Show.on.Broadway.2011.1080p.BluRay.x264-aAF 5.47

-->

◎译  名 皮威百老汇秀

◎片  名 The Pee-Wee Herman Show on Broadway

◎年  代 2011

◎国  家 美国

◎类  别 喜剧

◎语  言 英语

◎上映日期 2011-03-19

◎IMDb评分  7.6/10 from 639 users

◎IMDb链接  http://www.imdb.com/title/tt1839648/

◎豆瓣评分 6.1/10 from 28 users

◎豆瓣链接 https://movie.douban.com/subject/5982725/

◎BT之家整理 http://www.btbtt.co

◎片  长 88分钟

◎导  演 Marty Callner

◎主  演 Paul Reubens

      John Paragon (additional material)


◎简  介


  Subversive humor and childlike wonder based on both Reubens' original stage show| "The Pee-wee Herman Show|" and the Emmy-winning Saturday morning TV show|
"Pee-wee's Playhouse."


Video
ID                                       : 1
Format                                   : AVC
Format/Info                              : Advanced Video Codec
Format profile                           : [email protected]
Format settings, CABAC                   : Yes
Format settings, ReFrames                : 4 frames
Codec ID                                 : V_MPEG4/ISO/AVC
Duration                                 : 1h 28mn
Bit rate                                 : 8 173 Kbps
Width                                    : 1 920 pixels
Height                                   : 1 080 pixels
Display aspect ratio                     : 16:9
Frame rate mode                          : Constant
Frame rate                               : 29.970 (30000/1001) fps
Color space                              : YUV
Chroma subsampling                       : 4:2:0
Bit depth                                : 8 bits
Scan type                                : Progressive
Bits/(Pixel*Frame)                       : 0.132
Stream size                              : 4.96 GiB (91%)
Writing library                          : x264 core 119 r2106 07efeb4
Encoding settings                        : cabac=1 / ref=4 / deblock=1:0:0 / analyse=0x3:0x133 / me=umh / subme=8 / psy=1 / psy_rd=1.00:0.00 / mixed_ref=1 / me_range=16 / chroma_me=1 / trellis=1 / 8x8dct=1 / cqm=0 / deadzone=21,11 / fast_pskip=0 / chroma_qp_offset=-2 / threads=12 / sliced_threads=0 / nr=0 / decimate=1 / interlaced=0 / bluray_compat=0 / constrained_intra=0 / bframes=3 / b_pyramid=2 / b_adapt=1 / b_bias=0 / direct=1 / weightb=1 / open_gop=0 / weightp=2 / keyint=240 / keyint_min=24 / scenecut=40 / intra_refresh=0 / rc_lookahead=40 / rc=2pass / mbtree=1 / bitrate=8173 / ratetol=1.0 / qcomp=0.60 / qpmin=0 / qpmax=69 / qpstep=4 / cplxblur=20.0 / qblur=0.5 / ip_ratio=1.40 / aq=1:1.00
Language                                 : English
Default                                  : Yes
Forced                                   : No

Audio
ID                                       : 2
Format                                   : AC-3
Format/Info                              : Audio Coding 3
Mode extension                           : CM (complete main)
Format settings, Endianness              : Big
Codec ID                                 : A_AC3
Duration                                 : 1h 28mn
Bit rate mode                            : Constant
Bit rate                                 : 640 Kbps
Channel(s)                               : 2 channels
Channel positions                        : Front: L R
Sampling rate                            : 48.0 KHz
Frame rate                               : 31.250 fps (1536 spf)
Compression mode                         : Lossy
Stream size                              : 406 MiB (7%)
Default                                  : Yes
Forced                                   : No




1 个附件 售价 大小 下载 时间

The.Pee-wee.Herman.Show.on.Broadway.2011.1080p.BluRay.x264-aAF[btbtt.la].torrent 0 金币 55.22K 1096 次 2016-11-3

#1楼
发帖时间:2016-11-03 19:30:02   |   回复数:2
liyouchai
隐世仙人♂
谢谢楼主分享资源
2016-11-4 #2楼
blue23
隐世仙人♂
感谢楼主分享
2016-11-4 #3楼
游客组