aoloffline
版主

[2011] [欧美] [动画] [BD-1080P] [BT下载]最小的天使 The.Littlest.Angel.2011.1080p.BluRay.x264-HD4U 3.28GB

-->

◎译  名 最小的天使

◎片  名 The Littlest Angel

◎年  代 2011

◎国  家 美国

◎类  别 动画

◎语  言 英语

◎IMDb评分  4.7/10 from 198 users

◎IMDb链接  http://www.imdb.com/title/tt1869724/

◎豆瓣评分 5.7/10 from 143 users

◎豆瓣链接 https://movie.douban.com/subject/10441035/

◎类  别 纪录片

◎导  演 Dave Kim


◎简  介


  影片改编自同名畅销小说,讲述的是初来天堂报到的小不点天使把天堂闹的人仰马翻,随着上帝之子耶稣诞辰逐渐接近,最小的天使 他的朋友小狗Halo一起踏上了回家之旅。


Video
ID                                       : 1
Format                                   : AVC
Format/Info                              : Advanced Video Codec
Format profile                           : [email protected]
Format settings, CABAC                   : Yes
Format settings, ReFrames                : 4 frames
Codec ID                                 : V_MPEG4/ISO/AVC
Duration                                 : 1h 23mn
Bit rate                                 : 5 005 Kbps
Width                                    : 1 920 pixels
Height                                   : 1 080 pixels
Display aspect ratio                     : 16:9
Frame rate mode                          : Constant
Frame rate                               : 23.976 fps
Color space                              : YUV
Chroma subsampling                       : 4:2:0
Bit depth                                : 8 bits
Scan type                                : Progressive
Bits/(Pixel*Frame)                       : 0.101
Stream size                              : 2.84 GiB (87%)
Writing library                          : x264 core 120 r2164 da19765
Encoding settings                        : cabac=1 / ref=4 / deblock=1:0:0 / analyse=0x3:0x133 / me=umh / subme=7 / psy=1 / psy_rd=1.00:0.00 / mixed_ref=1 / me_range=16 / chroma_me=1 / trellis=1 / 8x8dct=1 / cqm=0 / deadzone=21,11 / fast_pskip=0 / chroma_qp_offset=-2 / threads=12 / sliced_threads=0 / nr=0 / decimate=1 / interlaced=0 / bluray_compat=0 / constrained_intra=0 / bframes=3 / b_pyramid=2 / b_adapt=1 / b_bias=0 / direct=1 / weightb=1 / open_gop=0 / weightp=2 / keyint=250 / keyint_min=23 / scenecut=40 / intra_refresh=0 / rc_lookahead=40 / rc=2pass / mbtree=1 / bitrate=5005 / ratetol=1.0 / qcomp=0.60 / qpmin=0 / qpmax=69 / qpstep=4 / cplxblur=20.0 / qblur=0.5 / ip_ratio=1.40 / aq=1:1.00
Language                                 : English
Default                                  : Yes
Forced                                   : No

Audio
ID                                       : 2
Format                                   : AC-3
Format/Info                              : Audio Coding 3
Mode extension                           : CM (complete main)
Format settings, Endianness              : Big
Codec ID                                 : A_AC3
Duration                                 : 1h 23mn
Bit rate mode                            : Constant
Bit rate                                 : 640 Kbps
Channel(s)                               : 6 channels
Channel positions                        : Front: L C R, Side: L R, LFE
Sampling rate                            : 48.0 KHz
Frame rate                               : 31.250 fps (1536 spf)
Compression mode                         : Lossy
Stream size                              : 380 MiB (11%)
Language                                 : English
Default                                  : Yes
Forced                                   : No

Text
ID                                       : 3
Format                                   : UTF-8
Codec ID                                 : S_TEXT/UTF8
Codec ID/Info                            : UTF-8 Plain Text
Language                                 : English
Default                                  : Yes
Forced                                   : No





1 个附件 售价 大小 下载 时间

The.Littlest.Angel.2011.1080p.BluRay.x264-HD4U[btbtt.la].torrent 0 金币 66.13K 1016 次 2016-11-7

#1楼
发帖时间:2016-11-07 23:38:25   |   回复数:3
911degrees
隐世仙人♂
非常感谢,谢谢分享
2016-11-8 #2楼
liyouchai
隐世仙人♂
谢谢楼主分享资源
2016-11-8 #3楼
blue23
隐世仙人♂
感谢楼主分享
2016-11-9 #4楼
游客组