aoloffline
版主

[2011] [日本] [动作] [BD-1080P] [BT下载]杀戮都市2 Gantz.2.Perfect.Answer.2011.1080p.BluRay.x264-Japhson 9.8GB

-->

◎译  名 杀戮都市2/杀戮都市 2

◎片  名 GANTZ PERFECT ANSWER

◎年  代 2011

◎国  家 日本

◎类  别 动作

◎语  言 日语

◎上映日期 2011-04-23(日本)

◎IMDb评分  6.3/10 from 2,616 users

◎IMDb链接  http://www.imdb.com/title/tt1525836/

◎豆瓣评分 6.6/10 from 10,091 users

◎豆瓣链接 https://movie.douban.com/subject/4079119/

◎BT之家整理 http://www.btbtt.co 

◎片  长 141分钟/168分钟(加长版)

◎导  演 佐藤信介 Shinsuke Sato

◎主  演 二宫和也 Kazunari Ninomiya

      松山研一 Ken'ichi Matsuyama

      吉高由里子 Yuriko Yoshitaka

      本乡奏多 Kanata Hongô

      夏菜 Natsuna

      绫野刚 Gô Ayano

      水泽奈子 Nako Mizusawa

      千阪健介

      白石隼也 Shun'ya Shiraishi

      伊藤步 Ayumi Ito

      田口智朗 Tomorowo Taguchi

      山田孝之 Takayuki Yamada

      户田菜穗 Naho Toda


◎简  介


  为了复活死去的好友加藤胜(松山健一 饰)以及其他逝者,玄野计(二宫和也 饰)与战友们5个月来不断与各种外星人作战,赢取更多的分数。在这一过程中,不断有新丁加入Gantz,而新丁似乎又对这个看似陌生的异类世界有着莫名的熟悉感。某天,本应死去的加藤突然出现在现实世界,这令玄野等人大为不解。而之后的战斗也显现出了诸多奇怪之处,比如在与黑衣星人的战斗中,敌我双方竟然同时出现在人满为患的地铁车厢内,以致于血流成河,引起巨大伤亡。现实与虚幻的界限开始模糊,来势汹汹的外星人也准备向Gantz的总部发起最后的攻击……

  本片根据奥浩哉的同名漫画改编。


Video
ID                                       : 1
Format                                   : AVC
Format/Info                              : Advanced Video Codec
Format profile                           : [email protected]
Format settings, CABAC                   : Yes
Format settings, ReFrames                : 4 frames
Muxing mode                              : Header stripping
Codec ID                                 : V_MPEG4/ISO/AVC
Duration                                 : 2h 21mn
Bit rate                                 : 8 411 Kbps
Width                                    : 1 920 pixels
Height                                   : 1 040 pixels
Display aspect ratio                     : 1.85:1
Frame rate mode                          : Constant
Frame rate                               : 23.976 (24000/1001) fps
Color space                              : YUV
Chroma subsampling                       : 4:2:0
Bit depth                                : 8 bits
Scan type                                : Progressive
Bits/(Pixel*Frame)                       : 0.176
Stream size                              : 8.14 GiB (83%)
Writing library                          : x264 core 120 r2145 748fe16
Encoding settings                        : cabac=1 / ref=4 / deblock=1:-1:-1 / analyse=0x3:0x113 / me=umh / subme=7 / psy=1 / psy_rd=1.00:0.00 / mixed_ref=1 / me_range=16 / chroma_me=1 / trellis=1 / 8x8dct=1 / cqm=0 / deadzone=21,11 / fast_pskip=1 / chroma_qp_offset=-2 / threads=12 / sliced_threads=0 / nr=0 / decimate=1 / interlaced=0 / bluray_compat=0 / constrained_intra=0 / bframes=3 / b_pyramid=2 / b_adapt=2 / b_bias=0 / direct=3 / weightb=1 / open_gop=0 / weightp=2 / keyint=250 / keyint_min=23 / scenecut=40 / intra_refresh=0 / rc_lookahead=40 / rc=2pass / mbtree=1 / bitrate=8411 / ratetol=1.0 / qcomp=0.60 / qpmin=0 / qpmax=69 / qpstep=4 / cplxblur=20.0 / qblur=0.5 / vbv_maxrate=50000 / vbv_bufsize=50000 / nal_hrd=none / ip_ratio=1.40 / aq=1:1.00
Language                                 : Japanese
Default                                  : Yes
Forced                                   : Yes

Audio
ID                                       : 2
Format                                   : DTS
Format/Info                              : Digital Theater Systems
Mode                                     : 16
Format settings, Endianness              : Big
Muxing mode                              : Header stripping
Codec ID                                 : A_DTS
Duration                                 : 2h 21mn
Bit rate mode                            : Constant
Bit rate                                 : 1 509 Kbps
Channel(s)                               : 6 channels
Channel positions                        : Front: L C R, Side: L R, LFE
Sampling rate                            : 48.0 KHz
Frame rate                               : 93.750 fps (512 spf)
Bit depth                                : 24 bits
Compression mode                         : Lossy
Stream size                              : 1.50 GiB (15%)
Language                                 : Japanese
Default                                  : Yes
Forced                                   : Yes

Text
ID                                       : 3
Format                                   : UTF-8
Codec ID                                 : S_TEXT/UTF8
Codec ID/Info                            : UTF-8 Plain Text
Language                                 : English
Default                                  : Yes
Forced                                   : No





1 个附件 售价 大小 下载 时间

Gantz.2.Perfect.Answer.2011.1080p.BluRay.x264-Japhson[btbtt.la].torrent 0 金币 98.81K 14537 次 2016-11-9

#1楼
发帖时间:2016-11-09 10:00:24   |   回复数:5
911degrees
隐世仙人♂
非常感谢,谢谢分享
2016-11-9 #2楼
到处瞎看看
禁止发言
用户被禁言,帖子被屏蔽。
2016-11-9 #3楼
liyouchai
隐世仙人♂
谢谢楼主分享资源
2016-11-9 #4楼
blue23
隐世仙人♂
感谢楼主分享
2016-11-9 #5楼
121076
一派掌门
感谢分享,支持~    
2017-8-27 #6楼
游客组