aoloffline
版主

[2011] [欧美] [动画] [BD-1080P] [BT下载]奥基的内陆探险 Oakies.Outback.Adventures.2011.1080p.BluRay.x264-PFa 4.36GB

-->



◎译  名 奥基的内陆探险

◎片  名 Oakies Outback Adventures

◎年  代 2011

◎国  家 美国

◎类  别 动画

◎语  言 英语

◎IMDb评分  5.1/10 from 39 users

◎IMDb链接  http://www.imdb.com/title/tt1914320/

◎BT之家整理 http://www.btbtt.co 

◎导  演 Troy Dann


◎简  介


  奥基是一只年轻的布卢·赫勒犬,原本打算被送到美国德克萨斯,然而由于快递公司的失误,它被送到了澳大利亚昆士兰的德克萨斯。奥基很快地与Action Dann成为朋友,并一起开始了一段奇妙的冒险旅程。片中充满了强烈的澳大利亚风格幽默,同时向观众展示了澳大利亚内陆独特的美景和健康的生活方式。



Video
ID                                       : 1
Format                                   : AVC
Format/Info                              : Advanced Video Codec
Format profile                           : [email protected]
Format settings, CABAC                   : Yes
Format settings, ReFrames                : 4 frames
Muxing mode                              : Header stripping
Codec ID                                 : V_MPEG4/ISO/AVC
Duration                                 : 1h 29mn
Bit rate                                 : 5 469 Kbps
Width                                    : 1 920 pixels
Height                                   : 1 040 pixels
Display aspect ratio                     : 1.85:1
Frame rate mode                          : Constant
Frame rate                               : 24.000 fps
Color space                              : YUV
Chroma subsampling                       : 4:2:0
Bit depth                                : 8 bits
Scan type                                : Progressive
Bits/(Pixel*Frame)                       : 0.114
Stream size                              : 3.33 GiB (76%)
Writing library                          : x264 core 120 r2120 0c7dab9
Encoding settings                        : cabac=1 / ref=4 / deblock=1:0:0 / analyse=0x3:0x133 / me=umh / subme=8 / psy=1 / psy_rd=1.00:0.00 / mixed_ref=1 / me_range=16 / chroma_me=1 / trellis=1 / 8x8dct=1 / cqm=0 / deadzone=21,11 / fast_pskip=0 / chroma_qp_offset=-2 / threads=12 / sliced_threads=0 / nr=0 / decimate=1 / interlaced=0 / bluray_compat=0 / constrained_intra=0 / bframes=3 / b_pyramid=2 / b_adapt=1 / b_bias=0 / direct=1 / weightb=1 / open_gop=0 / weightp=2 / keyint=250 / keyint_min=24 / scenecut=40 / intra_refresh=0 / rc_lookahead=40 / rc=2pass / mbtree=1 / bitrate=5469 / ratetol=1.0 / qcomp=0.60 / qpmin=0 / qpmax=69 / qpstep=4 / cplxblur=20.0 / qblur=0.5 / ip_ratio=1.40 / aq=1:1.00
Language                                 : English
Default                                  : Yes
Forced                                   : No

Audio
ID                                       : 2
Format                                   : DTS
Format/Info                              : Digital Theater Systems
Mode                                     : 16
Format settings, Endianness              : Big
Muxing mode                              : Header stripping
Codec ID                                 : A_DTS
Duration                                 : 1h 29mn
Bit rate mode                            : Constant
Bit rate                                 : 1 509 Kbps
Channel(s)                               : 6 channels
Channel positions                        : Front: L C R, Side: L R, LFE
Sampling rate                            : 48.0 KHz
Frame rate                               : 93.750 fps (512 spf)
Bit depth                                : 24 bits
Compression mode                         : Lossy
Stream size                              : 966 MiB (22%)
Default                                  : Yes
Forced                                   : No





1 个附件 售价 大小 下载 时间

Oakies.Outback.Adventures.2011.1080p.BluRay.x264-PFa[btbtt.la].torrent 0 金币 87.78K 834 次 2016-11-12

#1楼
发帖时间:2016-11-12 11:28:04   |   回复数:3
911degrees
隐世仙人♂
非常感谢,谢谢分享
2016-11-12 #2楼
liyouchai
隐世仙人♂
谢谢楼主分享资源
2016-11-12 #3楼
blue23
隐世仙人♂
感谢楼主分享
2016-11-15 #4楼
游客组