aoloffline
版主

[2011] [欧美] [动画] [BD-1080P] [BT下载]汤马仕小火车之智斗柴油车 2011.1080p.BluRay.x264-PFa 3.27GB

-->

◎译  名 汤马仕小火车之智斗柴油车(港)

◎片  名 Thomas & Friends: Day of the Diesels

◎年  代 2011

◎国  家 英国

◎类  别 动画

◎语  言 英语

◎IMDb评分  6.3/10 from 94 users

◎IMDb链接  http://www.imdb.com/title/tt2050664/

◎BT之家整理 http://www.btbtt.co 

◎导  演 Greg Tiernan


◎简  介


  索多岛发生火警了! 刚抵步的消防火车BELLE大展身手拯救了灾场。不久,全新的消防火车FLYNN也来到索多岛协助救火的工作。THOMAS获委以重任,负责向他们介绍全岛,因此冷落了最好的朋友PERCY。PERCY感到不再受到重视,让不怀好意的Diesels 柴油车队伍有机可乘, 设法使Percy加入柴油车队伍进行他们的秘密行动! PERCY为了一显自己的重要性,不惜把负责维修的KEVIN带到DIES...


Video
ID                                       : 1
Format                                   : AVC
Format/Info                              : Advanced Video Codec
Format profile                           : [email protected]
Format settings, CABAC                   : Yes
Format settings, ReFrames                : 4 frames
Muxing mode                              : Header stripping
Codec ID                                 : V_MPEG4/ISO/AVC
Duration                                 : 57mn 26s
Bit rate                                 : 6 641 Kbps
Width                                    : 1 920 pixels
Height                                   : 1 072 pixels
Display aspect ratio                     : 16:9
Frame rate mode                          : Constant
Frame rate                               : 25.000 fps
Color space                              : YUV
Chroma subsampling                       : 4:2:0
Bit depth                                : 8 bits
Scan type                                : Progressive
Bits/(Pixel*Frame)                       : 0.129
Stream size                              : 2.60 GiB (79%)
Writing library                          : x264 core 116 r2074 2641b9e
Encoding settings                        : cabac=1 / ref=4 / deblock=1:0:0 / analyse=0x3:0x133 / me=umh / subme=8 / psy=1 / psy_rd=1.00:0.00 / mixed_ref=1 / me_range=16 / chroma_me=1 / trellis=1 / 8x8dct=1 / cqm=0 / deadzone=21,11 / fast_pskip=0 / chroma_qp_offset=-2 / threads=12 / sliced_threads=0 / nr=0 / decimate=1 / interlaced=0 / bluray_compat=0 / constrained_intra=0 / bframes=3 / b_pyramid=2 / b_adapt=1 / b_bias=0 / direct=1 / weightb=1 / open_gop=0 / weightp=2 / keyint=250 / keyint_min=25 / scenecut=40 / intra_refresh=0 / rc_lookahead=40 / rc=2pass / mbtree=1 / bitrate=6641 / ratetol=1.0 / qcomp=0.60 / qpmin=0 / qpmax=69 / qpstep=4 / cplxblur=20.0 / qblur=0.5 / ip_ratio=1.40 / aq=1:1.00
Language                                 : English
Default                                  : Yes
Forced                                   : No

Audio
ID                                       : 2
Format                                   : DTS
Format/Info                              : Digital Theater Systems
Mode                                     : 16
Format settings, Endianness              : Big
Muxing mode                              : Header stripping
Codec ID                                 : A_DTS
Duration                                 : 57mn 26s
Bit rate mode                            : Constant
Bit rate                                 : 1 509 Kbps
Channel(s)                               : 6 channels
Channel positions                        : Front: L C R, Side: L R, LFE
Sampling rate                            : 48.0 KHz
Frame rate                               : 93.750 fps (512 spf)
Bit depth                                : 16 bits
Compression mode                         : Lossy
Stream size                              : 620 MiB (19%)
Default                                  : Yes
Forced                                   : No





1 个附件 售价 大小 下载 时间

Thomas.And.Friends.Day.Of.The.Diesels.2011.1080p.BluRay.x264-PFa[btbtt.la].torrent 0 金币 65.95K 1671 次 2016-11-12

#1楼
发帖时间:2016-11-12 11:42:15   |   回复数:4
911degrees
隐世仙人♂
非常感谢,谢谢分享
2016-11-12 #2楼
ulix
武林高手
感谢楼主分享!!!
2016-11-12 #3楼
liyouchai
隐世仙人♂
谢谢楼主分享资源
2016-11-12 #4楼
blue23
隐世仙人♂
感谢楼主分享
2016-11-15 #5楼
游客组