aoloffline
超凡入圣№

[2011] [日本] [动画] [BD-1080P] [BT下载]追逐繁星的孩子 Journey.To.Agartha.2011.1080p.BluRay.x264-RedBlade 6.72GB

-->

◎译  名 追逐繁星的孩子

◎片  名 星を追う子ども

◎年  代 2011

◎国  家 日本

◎类  别 动画/奇幻/冒险

◎语  言 日语

◎上映日期 2011-05-07(日本)

◎IMDb评分  7.3/10 from 7,553 users

◎IMDb链接  http://www.imdb.com/title/tt1839494/

◎豆瓣评分 7.2/10 from 34,259 users

◎豆瓣链接 https://movie.douban.com/subject/4246125/

◎BT之家整理 http://www.btbtt.co

◎片  长 116分钟

◎导  演 新海诚 Makoto Shinkai

◎主  演 金元寿子 Hisako Kanemoto

      入野自由 Miyu Irino

      井上和彦 Kazuhiko Inoue (I)

      岛本须美 Sumi Shimamoto

      日高里菜 Rina Hidaka

      竹内顺子 Junko Takeuchi (I)

      折笠富美子 Fumiko Orikasa


◎简  介


  在一片宁静的小山村,少女渡濑明日菜(金元寿子 配音)时常站在山顶,用父亲留给她的神秘矿石作二极管,收听着来自外面世界的美妙音乐。在一次放学途中,明日菜遭到一头怪兽的袭击,关键时刻她被俊美少年瞬(入野自由 配音)救下,纯洁的友谊在少男少女之间开始萌芽。明日菜体味着友谊的甜蜜,却不知瞬在某天悄然离开人世。新来的男老师森崎龙司(井上和彦 配音)为孩子们讲述了死国的传说,明日菜这才意识到瞬正是来自另一个世界雅戈泰的人。森崎真实身份隶属某个神秘组织,他和明日菜的心中都有想要复活的人,于是经过一波三折,他们随着瞬的弟弟心一同来到了传说中的雅戈泰。

  在这个绝美而凄惶的国度,他们展开了似乎永无止境的旅程……


Video
ID                                       : 1
Format                                   : AVC
Format/Info                              : Advanced Video Codec
Format profile                           : [email protected]
Format settings, CABAC                   : Yes
Format settings, ReFrames                : 4 frames
Codec ID                                 : V_MPEG4/ISO/AVC
Duration                                 : 1h 56mn
Bit rate                                 : 6 775 Kbps
Width                                    : 1 920 pixels
Height                                   : 1 080 pixels
Display aspect ratio                     : 16:9
Frame rate mode                          : Constant
Frame rate                               : 23.976 (24000/1001) fps
Color space                              : YUV
Chroma subsampling                       : 4:2:0
Bit depth                                : 8 bits
Scan type                                : Progressive
Bits/(Pixel*Frame)                       : 0.136
Stream size                              : 5.36 GiB (80%)
Writing library                          : x264 core 129 r2245 bc13772
Encoding settings                        : cabac=1 / ref=4 / deblock=1:0:0 / analyse=0x3:0x113 / me=umh / subme=7 / psy=1 / psy_rd=1.00:0.00 / mixed_ref=1 / me_range=16 / chroma_me=1 / trellis=1 / 8x8dct=1 / cqm=0 / deadzone=21,11 / fast_pskip=1 / chroma_qp_offset=-2 / threads=6 / lookahead_threads=1 / sliced_threads=0 / nr=0 / decimate=1 / interlaced=0 / bluray_compat=0 / constrained_intra=0 / bframes=3 / b_pyramid=2 / b_adapt=1 / b_bias=0 / direct=1 / weightb=1 / open_gop=0 / weightp=2 / keyint=240 / keyint_min=23 / scenecut=40 / intra_refresh=0 / rc_lookahead=40 / rc=2pass / mbtree=1 / bitrate=6775 / ratetol=1.0 / qcomp=0.60 / qpmin=10 / qpmax=51 / qpstep=4 / cplxblur=20.0 / qblur=0.5 / ip_ratio=1.40 / aq=1:1.00
Language                                 : English
Default                                  : Yes
Forced                                   : No

Audio
ID                                       : 2
Format                                   : DTS
Format/Info                              : Digital Theater Systems
Mode                                     : 16
Format settings, Endianness              : Big
Codec ID                                 : A_DTS
Duration                                 : 1h 56mn
Bit rate mode                            : Constant
Bit rate                                 : 1 509 Kbps
Channel(s)                               : 6 channels
Channel positions                        : Front: L C R, Side: L R, LFE
Sampling rate                            : 48.0 KHz
Frame rate                               : 93.750 fps (512 spf)
Bit depth                                : 24 bits
Compression mode                         : Lossy
Stream size                              : 1.22 GiB (18%)
Language                                 : English
Default                                  : No
Forced                                   : No

Text
ID                                       : 3
Format                                   : UTF-8
Codec ID                                 : S_TEXT/UTF8
Codec ID/Info                            : UTF-8 Plain Text
Language                                 : English
Default                                  : Yes
Forced                                   : No





1 个附件 售价 大小 下载 时间

Journey.To.Agartha.2011.1080p.BluRay.x264-RedBlade[btbtt.co].torrent 0 金币 67.83K 5173 次 2016-11-25

#1楼
发帖时间:2016-11-25 10:15:30   |   回复数:5
911degrees
隐世仙人♂
非常感谢,谢谢分享
2016-11-25 #2楼
blue23
隐世仙人♂
感谢楼主分享
2016-11-25 #3楼
liyouchai
隐世仙人♂
谢谢楼主分享资源
2016-11-25 #4楼
jokingcheung
一代宗师
谢谢分享
2016-11-27 #5楼
ff8590
武林高手
感谢楼主分享!!
2016-12-1 #6楼
游客组