aoloffline
超凡入圣№

[2011] [日本] [动画] [BD-1080P] [BT下载]壳中少女:燃烧 2011.1080p.BluRay.x264-SPLiTSViLLE 4.37GB

-->

◎译  名 壳中少女:燃烧

◎片  名 マルドゥック・スクランブル 燃焼

◎年  代 2011

◎国  家 日本

◎类  别 动画

◎语  言 日语

◎上映日期 2011-09-03

◎IMDb评分  6.4/10 from 464 users

◎IMDb链接  http://www.imdb.com/title/tt2231375/

◎豆瓣评分 7.9/10 from 2,053 users

◎豆瓣链接 https://movie.douban.com/subject/6096710/

◎BT之家整理 http://www.btbtt.co

◎片  长 61分钟

◎导  演 工藤进 Susumu Kudo

◎主  演 林原惠美 Megumi Hayashibara

      八岛智人 Norito Yashima

      东地宏树 Hiroki Touchi

      中井和哉 Kazuya Nakai

      矶部勉 Tsutomu Isobe

      若本规夫 Norio Wakamoto

      小林由美子 Yumiko Kobayashi

      浪川大辅 Daisuke Namikawa


◎简  介


  承受着残酷命运的少女露恩•芭洛特(林原惠美 配音)与强敌鲍伊德(矶部勉 配音)进行着实力悬殊的惨烈战斗,危急时刻,号称万能兵器的犯罪搜查官乌夫库克博士(八岛智人 配音)出现,拯救了濒临死亡的芭洛特。当芭洛特再次醒来,发现自己正置身于传说中的禁忌科学诞生之地——“乐园”实验室,再次她见识了许多奇怪的发明,并了解到“乐园”和三博士的过去。经过一番追查,她终于得知榭尔(中井和哉 配音)的记忆正藏在卡西诺赌场的一枚筹码之中。为了追查榭尔的过去,芭洛特化装成赌客走入凶险的赌场……

  本片根据冲方丁的科幻小说改编,为“壳中少女”三部曲中第二部(另两部分别为“压缩”和“排气”)。


Video
ID                                       : 1
Format                                   : AVC
Format/Info                              : Advanced Video Codec
Format profile                           : [email protected]
Format settings, CABAC                   : Yes
Format settings, ReFrames                : 4 frames
Codec ID                                 : V_MPEG4/ISO/AVC
Duration                                 : 1h 4mn
Bit rate                                 : 6 650 Kbps
Width                                    : 1 920 pixels
Height                                   : 1 080 pixels
Display aspect ratio                     : 16:9
Frame rate mode                          : Constant
Frame rate                               : 23.976 (24000/1001) fps
Original frame rate                      : 23.976 (23976/1000) fps
Color space                              : YUV
Chroma subsampling                       : 4:2:0
Bit depth                                : 8 bits
Scan type                                : Progressive
Bits/(Pixel*Frame)                       : 0.134
Stream size                              : 2.92 GiB (67%)
Writing library                          : x264 core 130 r2273 b3065e6
Encoding settings                        : cabac=1 / ref=4 / deblock=1:0:0 / analyse=0x3:0x133 / me=umh / subme=7 / psy=1 / psy_rd=1.00:0.00 / mixed_ref=1 / me_range=16 / chroma_me=1 / trellis=1 / 8x8dct=1 / cqm=0 / deadzone=21,11 / fast_pskip=0 / chroma_qp_offset=-2 / threads=12 / lookahead_threads=2 / sliced_threads=0 / nr=0 / decimate=1 / interlaced=0 / bluray_compat=0 / constrained_intra=0 / bframes=3 / b_pyramid=2 / b_adapt=2 / b_bias=0 / direct=3 / weightb=1 / open_gop=0 / weightp=2 / keyint=250 / keyint_min=23 / scenecut=40 / intra_refresh=0 / rc_lookahead=50 / rc=2pass / mbtree=1 / bitrate=6650 / ratetol=1.0 / qcomp=0.60 / qpmin=0 / qpmax=69 / qpstep=4 / cplxblur=20.0 / qblur=0.5 / ip_ratio=1.40 / aq=1:1.00
Language                                 : English
Default                                  : Yes
Forced                                   : No

Audio #1
ID                                       : 2
Format                                   : DTS
Format/Info                              : Digital Theater Systems
Mode                                     : 16
Format settings, Endianness              : Big
Codec ID                                 : A_DTS
Duration                                 : 1h 4mn
Bit rate mode                            : Constant
Bit rate                                 : 1 509 Kbps
Channel(s)                               : 6 channels
Channel positions                        : Front: L C R, Side: L R, LFE
Sampling rate                            : 48.0 KHz
Frame rate                               : 93.750 fps (512 spf)
Bit depth                                : 24 bits
Compression mode                         : Lossy
Stream size                              : 698 MiB (16%)
Language                                 : English
Default                                  : Yes
Forced                                   : No

Audio #2
ID                                       : 3
Format                                   : DTS
Format/Info                              : Digital Theater Systems
Mode                                     : 16
Format settings, Endianness              : Big
Codec ID                                 : A_DTS
Duration                                 : 1h 4mn
Bit rate mode                            : Constant
Bit rate                                 : 1 509 Kbps
Channel(s)                               : 6 channels
Channel positions                        : Front: L C R, Side: L R, LFE
Sampling rate                            : 48.0 KHz
Frame rate                               : 93.750 fps (512 spf)
Bit depth                                : 24 bits
Compression mode                         : Lossy
Stream size                              : 698 MiB (16%)
Language                                 : Japanese
Default                                  : No
Forced                                   : No

Text
ID                                       : 4
Format                                   : UTF-8
Codec ID                                 : S_TEXT/UTF8
Codec ID/Info                            : UTF-8 Plain Text
Language                                 : English
Default                                  : Yes
Forced                                   : No

Menu
00:00:00.000                             : en:00:00:00.000
00:09:26.775                             : en:00:09:26.775
00:21:07.099                             : en:00:21:07.099
00:36:13.797                             : en:00:36:13.797
00:46:43.509                             : en:00:46:43.509
00:59:20.265                             : en:00:59:20.265





1 个附件 售价 大小 下载 时间

Mardock.Scramble.The.Second.Combustion.2011.1080p.BluRay.x264-SPLiTSViLLE[btbtt.co].torrent 0 金币 87.90K 7921 次 2016-12-16

#1楼
发帖时间:2016-12-16 00:54:30   |   回复数:4
911degrees
隐世仙人♂
非常感谢,谢谢分享
2016-12-16 #2楼
blue23
隐世仙人♂
感谢楼主分享
2016-12-16 #3楼
xw_hylz
禁止发言
用户被禁言,帖子被屏蔽。
2016-12-16 #4楼
liyouchai
隐世仙人♂
谢谢楼主分享资源
2016-12-16 #5楼
游客组