aoloffline
版主

[2011] [日本] [动画] [BD-1080P] [BT下载]战国BASARA 剧场版 2011.1080p.BluRay.x264-SPLiTSViLLE 4.37GB

-->

◎译  名 剧场版 战国BASARA -The Last Party-/战国BASARA 剧场版

◎片  名 戦国BASARA  -The Last Party-

◎年  代 2011

◎国  家 日本

◎类  别 动画

◎语  言 日语

◎上映日期 2011-06-04

◎IMDb评分  6.9/10 from 87 users

◎IMDb链接  http://www.imdb.com/title/tt1948563/

◎豆瓣评分 7.3/10 from 870 users

◎豆瓣链接 https://movie.douban.com/subject/5298986/

◎BT之家整理 http://www.btbtt.co

◎片  长 93分钟

◎导  演 野村和也

◎主  演 中井和哉

      保志総一朗

      森川智之

      玄田哲章

      朴璐美

      子安武人

      大川透

      関智一


◎简  介


  《战国basara 剧场版》除了系列主角苍红二位外,将以战国basara3的关原之战为中心,再启用长大的德川家康与新角色石田三成两位为故事主角。 由于剧场版必须考虑到TV版铺下的剧情,尽管是改编自basara3(游戏),剧场版在设定细节上也出现了一些不同。就连讨伐了秀吉的人也不是家康而沿用TV的剧情改为政宗,这一决定性的改变完全能让这部剧场版把原作的剧情推翻重来,让人非常期待。


Video
ID                                       : 1
Format                                   : AVC
Format/Info                              : Advanced Video Codec
Format profile                           : [email protected]
Format settings, CABAC                   : Yes
Format settings, ReFrames                : 4 frames
Codec ID                                 : V_MPEG4/ISO/AVC
Duration                                 : 1h 34mn
Bit rate                                 : 5 303 Kbps
Width                                    : 1 920 pixels
Height                                   : 1 080 pixels
Display aspect ratio                     : 16:9
Frame rate mode                          : Constant
Frame rate                               : 23.976 (24000/1001) fps
Original frame rate                      : 23.976 (23976/1000) fps
Color space                              : YUV
Chroma subsampling                       : 4:2:0
Bit depth                                : 8 bits
Scan type                                : Progressive
Bits/(Pixel*Frame)                       : 0.107
Stream size                              : 3.43 GiB (79%)
Writing library                          : x264 core 142 r2409 d6b4e63
Encoding settings                        : cabac=1 / ref=4 / deblock=1:0:0 / analyse=0x3:0x133 / me=umh / subme=8 / psy=1 / psy_rd=1.00:0.00 / mixed_ref=1 / me_range=16 / chroma_me=1 / trellis=1 / 8x8dct=1 / cqm=0 / deadzone=21,11 / fast_pskip=0 / chroma_qp_offset=-2 / threads=12 / lookahead_threads=2 / sliced_threads=0 / nr=0 / decimate=1 / interlaced=0 / bluray_compat=0 / constrained_intra=0 / bframes=3 / b_pyramid=2 / b_adapt=2 / b_bias=0 / direct=3 / weightb=1 / open_gop=0 / weightp=2 / keyint=250 / keyint_min=23 / scenecut=40 / intra_refresh=0 / rc_lookahead=50 / rc=2pass / mbtree=1 / bitrate=5303 / ratetol=1.0 / qcomp=0.60 / qpmin=0 / qpmax=69 / qpstep=4 / cplxblur=20.0 / qblur=0.5 / ip_ratio=1.40 / aq=1:1.00
Language                                 : English
Default                                  : Yes
Forced                                   : No

Audio #1
ID                                       : 2
Format                                   : AC-3
Format/Info                              : Audio Coding 3
Mode extension                           : CM (complete main)
Format settings, Endianness              : Big
Codec ID                                 : A_AC3
Duration                                 : 1h 34mn
Bit rate mode                            : Constant
Bit rate                                 : 640 Kbps
Channel(s)                               : 6 channels
Channel positions                        : Front: L C R, Side: L R, LFE
Sampling rate                            : 48.0 KHz
Frame rate                               : 31.250 fps (1536 spf)
Compression mode                         : Lossy
Stream size                              : 435 MiB (10%)
Language                                 : English
Default                                  : Yes
Forced                                   : No

Audio #2
ID                                       : 3
Format                                   : AC-3
Format/Info                              : Audio Coding 3
Mode extension                           : CM (complete main)
Format settings, Endianness              : Big
Codec ID                                 : A_AC3
Duration                                 : 1h 34mn
Bit rate mode                            : Constant
Bit rate                                 : 640 Kbps
Channel(s)                               : 6 channels
Channel positions                        : Front: L C R, Side: L R, LFE
Sampling rate                            : 48.0 KHz
Frame rate                               : 31.250 fps (1536 spf)
Compression mode                         : Lossy
Stream size                              : 435 MiB (10%)
Language                                 : Japanese
Default                                  : No
Forced                                   : No

Text
ID                                       : 4
Format                                   : UTF-8
Codec ID                                 : S_TEXT/UTF8
Codec ID/Info                            : UTF-8 Plain Text
Language                                 : English
Default                                  : Yes
Forced                                   : No

Menu
00:00:00.000                             : en:00:00:00.000
00:04:08.248                             : en:00:04:08.248
00:08:21.084                             : en:00:08:21.084
00:13:26.431                             : en:00:13:26.431
00:18:33.571                             : en:00:18:33.571
00:24:22.461                             : en:00:24:22.461
00:29:31.561                             : en:00:29:31.561
00:33:20.624                             : en:00:33:20.624
00:37:22.699                             : en:00:37:22.699
00:42:04.564                             : en:00:42:04.564
00:45:59.173                             : en:00:45:59.173
00:51:02.559                             : en:00:51:02.559
00:55:03.133                             : en:00:55:03.133
00:58:10.153                             : en:00:58:10.153
01:02:54.854                             : en:01:02:54.854
01:06:35.992                             : en:01:06:35.992
01:09:37.131                             : en:01:09:37.131
01:13:13.264                             : en:01:13:13.264
01:18:25.075                             : en:01:18:25.075
01:23:12.905                             : en:01:23:12.905
01:29:05.924                             : en:01:29:05.924
01:34:46.306                             : en:01:34:46.306





1 个附件 售价 大小 下载 时间

Sengoku.Basara.Samurai.Kings.The.Last.Party.2011.1080p.BluRay.x264-SPLiTSViLLE[btbtt.co].torrent 0 金币 87.91K 2441 次 2016-12-16

#1楼
发帖时间:2016-12-16 09:07:30   |   回复数:5
911degrees
隐世仙人♂
非常感谢,谢谢分享
2016-12-16 #2楼
blue23
隐世仙人♂
感谢楼主分享
2016-12-16 #3楼
lucky31
小有名气
感谢分享!
2016-12-16 #4楼
albb2188
武林高手
支持一个 感谢楼主分享!!!!
2016-12-16 #5楼
liyouchai
隐世仙人♂
谢谢楼主分享资源
2016-12-16 #6楼
游客组