aoloffline
超凡入圣№

[2011] [欧美] [动画] [BD-1080P] [BT下载]少年雷神 Thor.Tales.of.Asgard.2011.1080p.BluRay.x264.DTS-FGT 4.03GB

-->

◎译  名 少年雷神/雷神奇侠:神之领域/雷神托尔:仙宫传说/雷神:神殿传说

◎片  名 Thor: Tales of Asgard

◎年  代 2011

◎国  家 美国

◎类  别 动画/动作/冒险

◎语  言 英语

◎上映日期 2011-05-17

◎IMDb评分  6.4/10 from 3,904 users

◎IMDb链接  http://www.imdb.com/title/tt1667903/

◎豆瓣评分 6.2/10 from 562 users

◎豆瓣链接 https://movie.douban.com/subject/5150851/

◎BT之家整理 http://www.btbtt.co

◎片  长 77分钟

◎导  演 Sam Liu

◎主  演 里克·高莫兹 Rick Gomez

      Tara Strong

      Matthew Wolf


◎简  介


  他曾经举起他的锤子…通往神秘的九个魔域的奇妙之旅在向他召唤。 那里满是浓雾和炽烈的孔洞,冰层里有长翼的生物和巨人,那里有引人向往的无尽探索:寻找传说中的苏尔特尔失落圣剑。托尔渴望冒险,便与他忠诚的弟弟洛基一起秘密开始了这千载难逢的旅程。洛基的三脚猫魔法只会惹祸上身。同行的还有仙宫三勇士,这是一帮不愿冒任何险的自负游侠,实际上可能很危险。但这个无恶意的寻宝之旅马上变得致命,托尔必须向自己证明以他一人之力挽救仙宫能带给他期待已久的命运。



Video

ID                                       : 1

Format                                   : AVC

Format/Info                              : Advanced Video Codec

Format profile                           : [email protected]

Format settings, CABAC                   : Yes

Format settings, ReFrames                : 3 frames

Codec ID                                 : V_MPEG4/ISO/AVC

Duration                                 : 1h 16mn

Bit rate mode                            : Variable

Bit rate                                 : 5 997 Kbps

Maximum bit rate                         : 18.0 Mbps

Width                                    : 1 920 pixels

Height                                   : 1 080 pixels

Display aspect ratio                     : 16:9

Frame rate mode                          : Constant

Frame rate                               : 23.976 (24000/1001) fps

Color space                              : YUV

Chroma subsampling                       : 4:2:0

Bit depth                                : 8 bits

Scan type                                : Progressive

Bits/(Pixel*Frame)                       : 0.121

Stream size                              : 3.14 GiB (78%)

Writing library                          : x264 core 115 r1947 b5a8ad7

Encoding settings                        : cabac=1 / ref=3 / deblock=1:0:0 / analyse=0x3:0x113 / me=umh / subme=7 / psy=1 / psy_rd=1.00:0.25 / mixed_ref=1 / me_range=16 / chroma_me=1 / trellis=1 / 8x8dct=1 / cqm=0 / deadzone=21,11 / fast_pskip=1 / chroma_qp_offset=-4 / threads=6 / sliced_threads=0 / slices=4 / nr=0 / decimate=1 / interlaced=0 / bluray_compat=1 / constrained_intra=0 / bframes=3 / b_pyramid=1 / b_adapt=1 / b_bias=0 / direct=3 / weightb=1 / open_gop=1 / weightp=0 / keyint=24 / keyint_min=2 / scenecut=40 / intra_refresh=0 / rc_lookahead=24 / rc=2pass / mbtree=1 / bitrate=5997 / ratetol=1.0 / qcomp=0.60 / qpmin=0 / qpmax=69 / qpstep=4 / cplxblur=20.0 / qblur=0.5 / vbv_maxrate=18000 / vbv_bufsize=18000 / nal_hrd=vbr / ip_ratio=1.40 / aq=1:1.00

Default                                  : Yes

Forced                                   : No


Audio

ID                                       : 2

Format                                   : DTS

Format/Info                              : Digital Theater Systems

Mode                                     : 16

Format settings, Endianness              : Big

Codec ID                                 : A_DTS

Duration                                 : 1h 16mn

Bit rate mode                            : Constant

Bit rate                                 : 1 509 Kbps

Channel(s)                               : 6 channels

Channel positions                        : Front: L C R, Side: L R, LFE

Sampling rate                            : 48.0 KHz

Frame rate                               : 93.750 fps (512 spf)

Bit depth                                : 24 bits

Compression mode                         : Lossy

Stream size                              : 831 MiB (20%)

Language                                 : English

Default                                  : Yes

Forced                                   : No


Menu

00:00:00.000                             : en01)00:00:00:000

00:05:00.000                             : en02)00:05:00:000

00:10:00.000                             : en03)00:10:00:000

00:15:00.000                             : en04)00:15:00:000

00:20:00.000                             : en05)00:20:00:000

00:25:00.000                             : en06)00:25:00:000

00:30:00.000                             : en07)00:30:00:000

00:35:00.000                             : en000:35:00:000

00:40:00.000                             : en09)00:40:00:000

00:45:00.000                             : en10)00:45:00:000

00:50:00.000                             : en11)00:50:00:000

00:55:00.000                             : en12)00:55:00:000

01:00:00.000                             : en13)01:00:00:000

01:05:00.000                             : en14)01:05:00:000

01:10:00.000                             : en15)01:10:00:000

01:15:00.000                             : en16)01:15:00:000

01:16:57.428                             : en17)01:16:57:428





1 个附件 售价 大小 下载 时间

Thor.Tales.of.Asgard.2011.1080p.BluRay.x264.DTS-FGT[btbtt.co].torrent 0 金币 81.25K 1556 次 2016-12-22

#1楼
发帖时间:2016-12-22 10:28:51   |   回复数:4
911degrees
隐世仙人♂
非常感谢,谢谢分享
2016-12-22 #2楼
blue23
隐世仙人♂
感谢楼主分享
2016-12-22 #3楼
liyouchai
隐世仙人♂
谢谢楼主分享资源
2016-12-22 #4楼
tanchoohoon
武林盟主
感谢楼主的无私分享
2016-12-22 #5楼
游客组