aoloffline
版主

[2006] [欧美] [喜剧] [WEB-1080P] [BT下载]奶牛美女 Cow.Belles.2006.1080p.WEBRip.DD5.1.x264-TrollHD 9.42GB

-->


◎译  名 奶牛美女

◎片  名 Cow Belles

◎国  家 USA

◎类  别 喜剧/爱情/家庭

◎语  言 English

◎上映日期 2006-03-24

◎IMDb评分  5.3/10 from 4,474 users

◎IMDb链接  http://www.imdb.com/title/tt0489007/

◎豆瓣评分 5.6/10 from 470 users

◎豆瓣链接 https://movie.douban.com/subject/1823230/

◎BT之家整理 http://www.btbtt.co  

◎导  演 Francine McDougall

◎主  演 Alyson Michalka

      Amanda Michalka


◎简  介


  Taylor和Courtney两姐妹由爸爸Reed独力抚养长大,从小挥霍且缺乏责任心,于是Reed决定让女孩们到自己经营的牛奶制品工厂工作一段时间,好好学习一下,到了工作的地方,小公主们还是弄出了不少麻烦,不过更严重的是,现在工厂出现了大问题,而爸爸却已经旅游外出联系不上,看来这次小公主们真的要好好上一课了...


Video
ID                                       : 3
Format                                   : AVC
Format/Info                              : Advanced Video Codec
Format profile                           : [email protected]
Format settings, CABAC                   : Yes
Format settings, ReFrames                : 4 frames
Codec ID                                 : V_MPEG4/ISO/AVC
Duration                                 : 1h 29mn
Bit rate mode                            : Variable
Bit rate                                 : 14.8 Mbps
Maximum bit rate                         : 15.0 Mbps
Width                                    : 1 920 pixels
Height                                   : 1 080 pixels
Display aspect ratio                     : 16:9
Frame rate mode                          : Constant
Frame rate                               : 23.976 (24000/1001) fps
Color space                              : YUV
Chroma subsampling                       : 4:2:0
Bit depth                                : 8 bits
Scan type                                : Progressive
Bits/(Pixel*Frame)                       : 0.298
Stream size                              : 9.28 GiB (98%)
Writing library                          : x264 core 148 r2623 d5b2374
Encoding settings                        : cabac=1 / ref=4 / deblock=1:-1:-1 / analyse=0x3:0x133 / me=umh / subme=9 / psy=1 / psy_rd=1.00:0.15 / mixed_ref=1 / me_range=24 / chroma_me=1 / trellis=2 / 8x8dct=1 / cqm=0 / deadzone=21,11 / fast_pskip=1 / chroma_qp_offset=-3 / threads=34 / lookahead_threads=5 / sliced_threads=0 / nr=150 / decimate=1 / interlaced=0 / bluray_compat=0 / constrained_intra=0 / bframes=8 / b_pyramid=2 / b_adapt=2 / b_bias=0 / direct=3 / weightb=1 / open_gop=0 / weightp=2 / keyint=120 / keyint_min=61 / scenecut=0 / intra_refresh=0 / rc_lookahead=120 / rc=crf / mbtree=1 / crf=18.0 / qcomp=0.60 / qpmin=0 / qpmax=69 / qpstep=4 / vbv_maxrate=15000 / vbv_bufsize=31250 / crf_max=0.0 / nal_hrd=vbr / filler=0 / ip_ratio=1.40 / aq=3:1.00
Default                                  : Yes
Forced                                   : No
Color range                              : Limited
Color primaries                          : BT.709
Transfer characteristics                 : BT.709
Matrix coefficients                      : BT.709

Audio
ID                                       : 2
Format                                   : E-AC-3
Format/Info                              : Audio Coding 3
Format settings, Endianness              : Big
Codec ID                                 : A_EAC3
Duration                                 : 1h 29mn
Bit rate mode                            : Constant
Bit rate                                 : 224 Kbps
Channel(s)                               : 2 channels
Channel positions                        : Front: L R
Sampling rate                            : 48.0 KHz
Frame rate                               : 187.500 fps (256 spf)
Compression mode                         : Lossy
Stream size                              : 144 MiB (1%)
Language                                 : English
Default                                  : Yes
Forced                                   : No

Text
ID                                       : 1
Format                                   : UTF-8
Codec ID                                 : S_TEXT/UTF8
Codec ID/Info                            : UTF-8 Plain Text
Duration                                 : 1h 29mn
Bit rate                                 : 90 bps
Count of elements                        : 2219
Stream size                              : 59.6 KiB (0%)
Default                                  : Yes
Forced                                   : No





1 个附件 售价 大小 下载 时间

Cow.Belles.2006.1080p.WEBRip.DD5.1.x264-TrollHD[btbtt.co].torrent 0 金币 94.77K 1884 次 6月前

#1楼
发帖时间:2017-01-11 23:02:49   |   回复数:3
liyouchai
超凡入圣№
谢谢楼主分享资源
6月前 #2楼
911degrees
一代宗师
非常感谢,谢谢分享
6月前 #3楼
blue23
超凡入圣№
感谢楼主分享
6月前 #4楼
游客组