小Q呆
版主

[2016] [欧美] [喜剧] [BD-1080P] [BT下载]犯罪大师 Masterminds.2016.1080p.BluRay.x264.DTS-HDChina 7.95GB

-->

◎译  名 犯罪大师/笨贼乐盗家(台)/最爆盗贼团(港)

◎片  名 Masterminds

◎年  代 2016

◎国  家 美国

◎类  别 喜剧/动作/犯罪

◎语  言 西班牙语/英语

◎上映日期 2016-09-30(美国)

◎IMDb评分  5.7/10 from 11,233 users

◎IMDb链接  http://www.imdb.com/title/tt2461150/

◎豆瓣评分 6.2/10 from 81 users

◎豆瓣链接 https://movie.douban.com/subject/21335963/

◎BT之家整理 http://www.btbtt.co

◎片  长 94分钟

◎导  演 杰瑞德·赫斯 Jared Hess

◎主  演 克里斯汀·韦格 Kristen Wiig

      欧文·威尔逊 Owen Wilson

      杰森·苏戴奇斯 Jason Sudeikis

      凯特·麦克金农 Kate McKinnon

      扎克·加利凡纳基斯 Zach Galifianakis

      肯·马里诺 Ken Marino

      乔恩·戴利 Jon Daly

      Devin Ratray

      罗达·格里菲丝 Rhoda Griffis

      Danny Comden

      马特·科博伊 Matt Corboy


◎简  介


  影片根据真实事件改编。扎克扮演的大卫是个简单的人,生活乏善可陈。他是一个运钞车司机,虽然每天运送数不清的钱,可那都是别人的钱。唯一让他高兴的便是见到美貌的女同事凯利(克里斯汀·韦格饰),而也正是凯利,将他卷进了一桩改变人生的大事件。

  虽然合作的是一群超级不靠谱的劫匪,领头的是超级不靠谱的史蒂夫(欧文·威尔逊饰),抢劫计划也是漏洞百出,可大卫真的完成了不可能完成的任务,偷走了1700万美元现金。唯一的问题便是,他把这些钱交给了这群各怀鬼胎,互相出卖,背后捅刀的劫匪们,自己却成了指定的替罪羊。

  如今成了逃犯的大卫,必须躲避追捕,从一个欢乐无比的杀手(杰森·苏戴奇斯饰)枪口逃生,并想方设法让这群陷害他的人付出应有的代价。


Complete name : Masterminds.2016.1080p.BluRay.x264.DTS-HDChina.mkv
Format : Matroska
Format version : Version 2
File size : 7.95 GiB
Duration : 1 h 34 min
Overall bit rate : 12.0 Mb/s
Movie name : Masterminds 2016 720p BluRay x264 DTS-HDChina
Encoded date : UTC 2017-01-11 05:32:39
Writing application : mkvmerge v5.8.0 (\'No Sleep / Pillow\') built on Sep 2 2012 15:37:04
Writing library : libebml v1.2.3 + libmatroska v1.3.0

Video
ID : 1
Format : AVC
Format/Info : Advanced Video Codec
Format profile : [email protected]
Format settings, CABAC : Yes
Format settings, ReFrames : 4 frames
Muxing mode : Header stripping
Codec ID : V_MPEG4/ISO/AVC
Duration : 1 h 34 min
Bit rate : 10.5 Mb/s
Width : 1 920 pixels
Height : 1 080 pixels
Display aspect ratio : 16:9
Frame rate mode : Constant
Frame rate : 23.976 (24000/1001) FPS
Color space : YUV
Chroma subsampling : 4:2:0
Bit depth : 8 bits
Scan type : Progressive
Bits/(Pixel*Frame) : 0.211
Stream size : 6.79 GiB (85%)
Title : Medusa @ HDChina
Writing library : x264 core 148 r2665kMod a01e339
Encoding settings : cabac=1 / ref=4 / deblock=1:-3:-3 / analyse=0x3:0x133 / me=umh / subme=11 / psy=1 / fade_compensate=0.00 / psy_rd=0.85:0.00 / mixed_ref=1 / me_range=48 / chroma_me=1 / trellis=2 / 8x8dct=1 / cqm=0 / deadzone=21,11 / fast_pskip=0 / chroma_qp_offset=-2 / threads=24 / lookahead_threads=4 / sliced_threads=0 / nr=0 / decimate=0 / interlaced=0 / bluray_compat=0 / constrained_intra=0 / fgo=0 / bframes=8 / b_pyramid=2 / b_adapt=2 / b_bias=0 / direct=3 / weightb=1 / open_gop=0 / weightp=2 / keyint=240 / keyint_min=24 / scenecut=40 / intra_refresh=0 / rc=2pass / mbtree=0 / bitrate=10500 / ratetol=1.0 / qcomp=0.70 / qpmin=0 / qpmax=69 / qpstep=4 / cplxblur=20.0 / qblur=0.5 / ip_ratio=1.20 / pb_ratio=1.20 / aq=3:0.80
Language : English
Default : Yes
Forced : No

Audio
ID : 2
Format : DTS
Format/Info : Digital Theater Systems
Mode : 16
Format settings, Endianness : Big
Muxing mode : Header stripping
Codec ID : A_DTS
Duration : 1 h 34 min
Bit rate mode : Constant
Bit rate : 1 509 kb/s
Channel(s) : 6 channels
Channel positions : Front: L C R, Side: L R, LFE
Sampling rate : 48.0 kHz
Frame rate : 93.750 FPS (512 spf)
Bit depth : 24 bits
Compression mode : Lossy
Stream size : 1 022 MiB (13%)
Language : English
Default : Yes
Forced : No

Text
ID : 3
Format : PGS
Muxing mode : zlib
Codec ID : S_HDMV/PGS
Codec ID/Info : Picture based subtitle format used on BDs/HD-DVDs
Language : English
Default : Yes
Forced : No

Menu
00:00:00.000 : en:00:00:00.000
00:06:37.188 : en:00:06:37.188
00:10:15.240 : en:00:10:15.240
00:16:56.432 : en:00:16:56.432
00:28:08.353 : en:00:28:08.353
00:31:30.138 : en:00:31:30.138
00:37:39.716 : en:00:37:39.716
00:45:28.476 : en:00:45:28.476
00:50:03.167 : en:00:50:03.167
00:57:30.906 : en:00:57:30.906
01:02:59.609 : en:01:02:59.609
01:07:59.158 : en:01:07:59.158
01:14:12.782 : en:01:14:12.782
01:20:20.024 : en:01:20:20.024
01:23:22.581 : en:01:23:22.581
01:27:25.657 : en:01:27:25.657

Screens.png

Click Image To View Full Size

etnB6.th.jpg
Click To View Screenshot
Click To View Screenshot
Click To View Screenshot


1 个附件 售价 大小 下载 时间

Masterminds.2016.1080p.BluRay.x264.DTS-HDChina[btbtt.co].torrent 0 金币 11.94K 4692 次 8月前

#1楼
发帖时间:2017-01-11 23:09:48   |   回复数:4
liyouchai
超凡入圣№
谢谢楼主分享资源
8月前 #2楼
911degrees
一代宗师
非常感谢,谢谢分享
8月前 #3楼
ljs0930
武林高手
有字幕吗?楼主
8月前 #4楼
blue23
超凡入圣№
感谢楼主分享
8月前 #5楼
游客组