aoloffline
版主

[2015] [欧美] [奇幻] [WEB-1080P] [BT下载]后裔/星光继承者 Descendants.2015.1080p.WEBRip.DD5.1.x264-TrollHD 9.87GB

-->


◎译  名 后裔/星光继承者(台)

◎片  名 Descendants

◎年  代 2015

◎国  家 美国

◎类  别 喜剧/动作/奇幻/冒险

◎语  言 英语

◎上映日期 2015-07-31(美国)

◎IMDb评分  6.4/10 from 8,056 users

◎IMDb链接  http://www.imdb.com/title/tt3440298/

◎豆瓣评分 5.9/10 from 882 users

◎豆瓣链接 https://movie.douban.com/subject/25908941/

◎BT之家整理 http://www.btbtt.co  

◎片  长 112分钟

◎导  演 肯尼·奥特加 Kenny Ortega

◎主  演 波波·斯图尔特 BooBoo Stewart

      德芙·卡梅隆 Dove Cameron

      克里斯汀·肯诺恩斯 Kristin Chenoweth

      基冈·康纳·特雷西 Keegan Connor Tracy

      Cameron Boyce

      凯茜·纳基麦 Kathy Najimy

      Stephanie Bennett

      Melanie Paxson

      温蒂·拉奎尔·罗宾逊 Wendy Raquel Robinson

      丹·佩恩 Dan Payne

      马兹·乔布拉尼 Maz Jobrani

      Sofia Carson

      Sarah Jeffery

      Jedidiah Goodacre

      Dejan Loyola


◎简  介


  梅尔(德芙·卡梅隆 Dove Cameron 饰)、卡洛斯(卡梅隆·伯艾斯 Cameron Boyce 饰)、艾维(Sofia Carson 饰)和杰(波波·斯图尔特 BooBoo Stewart 饰)都不是无名小卒,他们的父母更是大名鼎鼎,可惜都不是什么好名声。王子本(米切尔·霍普 Mitchell Hope 饰)是美女和野兽的后代,他给了四个孩子一个弃暗投明的机会,让他们进入高中就读,而那里的学生们都出生于传奇英雄的家庭。

  四个孩子的父母亲显然并没有终结他们的反派生涯,他们怂恿孩子们同他们里应外合,借此良机一举拿下奥伦登合众国,殊不知,这些孩子们早已经厌倦了被人指指点点和对父母言听计从的生活了!在善良和邪恶的分岔路口,他们会做出怎样的选择呢?


◎获奖情况


  第68届美国导演工会奖  (2016)

  最佳儿童电视节目导演 肯尼·奥特加


Video
ID                                       : 2
Format                                   : AVC
Format/Info                              : Advanced Video Codec
Format profile                           : [email protected]
Format settings, CABAC                   : Yes
Format settings, ReFrames                : 4 frames
Codec ID                                 : V_MPEG4/ISO/AVC
Duration                                 : 1h 51mn
Bit rate mode                            : Variable
Bit rate                                 : 12.0 Mbps
Maximum bit rate                         : 15.0 Mbps
Width                                    : 1 920 pixels
Height                                   : 1 080 pixels
Display aspect ratio                     : 16:9
Frame rate mode                          : Constant
Frame rate                               : 23.976 (24000/1001) fps
Color space                              : YUV
Chroma subsampling                       : 4:2:0
Bit depth                                : 8 bits
Scan type                                : Progressive
Bits/(Pixel*Frame)                       : 0.241
Stream size                              : 9.37 GiB (95%)
Writing library                          : x264 core 148 r2623 d5b2374
Encoding settings                        : cabac=1 / ref=4 / deblock=1:-1:-1 / analyse=0x3:0x133 / me=umh / subme=9 / psy=1 / psy_rd=1.00:0.15 / mixed_ref=1 / me_range=24 / chroma_me=1 / trellis=2 / 8x8dct=1 / cqm=0 / deadzone=21,11 / fast_pskip=1 / chroma_qp_offset=-3 / threads=34 / lookahead_threads=5 / sliced_threads=0 / nr=150 / decimate=1 / interlaced=0 / bluray_compat=0 / constrained_intra=0 / bframes=8 / b_pyramid=2 / b_adapt=2 / b_bias=0 / direct=3 / weightb=1 / open_gop=0 / weightp=2 / keyint=120 / keyint_min=61 / scenecut=0 / intra_refresh=0 / rc_lookahead=120 / rc=crf / mbtree=1 / crf=18.0 / qcomp=0.60 / qpmin=0 / qpmax=69 / qpstep=4 / vbv_maxrate=15000 / vbv_bufsize=31250 / crf_max=0.0 / nal_hrd=vbr / filler=0 / ip_ratio=1.40 / aq=3:1.00
Default                                  : Yes
Forced                                   : No
Color range                              : Limited
Color primaries                          : BT.709
Transfer characteristics                 : BT.709
Matrix coefficients                      : BT.709

Audio
ID                                       : 1
Format                                   : E-AC-3
Format/Info                              : Audio Coding 3
Format settings, Endianness              : Big
Codec ID                                 : A_EAC3
Duration                                 : 1h 51mn
Bit rate mode                            : Constant
Bit rate                                 : 640 Kbps
Channel(s)                               : 6 channels
Channel positions                        : Front: L C R, Side: L R, LFE
Sampling rate                            : 48.0 KHz
Frame rate                               : 187.500 fps (256 spf)
Compression mode                         : Lossy
Stream size                              : 512 MiB (5%)
Language                                 : English
Default                                  : Yes
Forced                                   : No

Text
ID                                       : 3
Format                                   : UTF-8
Codec ID                                 : S_TEXT/UTF8
Codec ID/Info                            : UTF-8 Plain Text
Duration                                 : 1h 51mn
Bit rate                                 : 75 bps
Count of elements                        : 1997
Stream size                              : 61.8 KiB (0%)
Default                                  : Yes
Forced                                   : No





1 个附件 售价 大小 下载 时间

Descendants.2015.1080p.WEBRip.DD5.1.x264-TrollHD[btbtt.co].torrent 0 金币 99.31K 1194 次 2月前

#1楼
发帖时间:2017-01-11 23:14:49   |   回复数:4
liyouchai
超凡入圣№
谢谢楼主分享资源
2月前 #2楼
911degrees
一代宗师
非常感谢,谢谢分享
2月前 #3楼
yangbo83222179
一代宗师
谢谢楼主分享,支持一下
2月前 #4楼
blue23
超凡入圣№
感谢楼主分享
2月前 #5楼
游客组