aoloffline
版主

[2014] [欧美] [纪录] [WEB-1080P] [BT下载]我听起来Gay吗? Do.I.Sound.Gay.2014.1080p.WEBRip.DD5.1.x264-TrollHD 4.5GB

-->

◎译  名 我听起来Gay吗?/我Gay掰吗?/我有基佬嗓吗?/基腔基调,我有吗?/我的声音听起来很gay吗?

◎片  名 Do I Sound Gay?

◎年  代 2014

◎国  家 美国

◎类  别 纪录片

◎语  言 英语

◎上映日期 2015-06-21(美国)

◎IMDb评分  5.4/10 from 1,365 users

◎IMDb链接  http://www.imdb.com/title/tt3997238/

◎豆瓣评分 7.3/10 from 111 users

◎豆瓣链接 https://movie.douban.com/subject/25985458/

◎BT之家整理 http://www.btbtt.co  

◎片  长 77分钟

◎导  演 David Thorpe

◎主  演 David Thorpe

      丹·萨维吉 Dan Savage

      蒂姆·古恩 Tim Gunn

      赵牡丹 Margaret Cho

      David Sedaris

      竹井乔治 George Takei


◎简  介


  对许多男同志来说,讲话的声调可能会令他们不安。不过对一般人而言,到底怎样的讲话方式听起来很Gay?电视电影又如何塑造出同志口音给人的刻板印象?本片导演大卫·索普在矫正自己声音的爆笑过程之余,也访问了众多名人的观点,如《天桥骄子》主持人蒂姆·古恩、《星际旅行》竹井乔治、CNN主播唐·莱蒙及喜剧明星赵牡丹等。究竟这难以摆脱的“气口”是福是祸,又该如何解?



Video
ID                                       : 1
Format                                   : AVC
Format/Info                              : Advanced Video Codec
Format profile                           : High@L4.1
Format settings, CABAC                   : Yes
Format settings, ReFrames                : 4 frames
Codec ID                                 : V_MPEG4/ISO/AVC
Duration                                 : 1h 17mn
Bit rate                                 : 7 762 Kbps
Width                                    : 1 920 pixels
Height                                   : 1 080 pixels
Display aspect ratio                     : 16:9
Frame rate mode                          : Constant
Frame rate                               : 23.976 (24000/1001) fps
Color space                              : YUV
Chroma subsampling                       : 4:2:0
Bit depth                                : 8 bits
Scan type                                : Progressive
Bits/(Pixel*Frame)                       : 0.156
Stream size                              : 4.19 GiB (92%)
Writing library                          : x264 core 148 r2638 7599210
Encoding settings                        : cabac=1 / ref=4 / deblock=1:-2:-2 / analyse=0x3:0x133 / me=umh / subme=10 / psy=1 / psy_rd=1.00:0.15 / mixed_ref=1 / me_range=48 / chroma_me=1 / trellis=2 / 8x8dct=1 / cqm=0 / deadzone=21,11 / fast_pskip=1 / chroma_qp_offset=-3 / threads=12 / lookahead_threads=2 / sliced_threads=0 / nr=0 / decimate=0 / interlaced=0 / bluray_compat=0 / constrained_intra=0 / bframes=8 / b_pyramid=2 / b_adapt=2 / b_bias=0 / direct=3 / weightb=1 / open_gop=0 / weightp=2 / keyint=240 / keyint_min=23 / scenecut=40 / intra_refresh=0 / rc_lookahead=60 / rc=crf / mbtree=1 / crf=18.0 / qcomp=0.70 / qpmin=0 / qpmax=69 / qpstep=4 / vbv_maxrate=300000 / vbv_bufsize=300000 / crf_max=0.0 / nal_hrd=none / filler=0 / ip_ratio=1.30 / aq=1:0.90
Default                                  : Yes
Forced                                   : No

Audio
ID                                       : 2
Format                                   : AC-3
Format/Info                              : Audio Coding 3
Mode extension                           : CM (complete main)
Format settings, Endianness              : Big
Codec ID                                 : A_AC3
Duration                                 : 1h 17mn
Bit rate mode                            : Constant
Bit rate                                 : 640 Kbps
Channel(s)                               : 6 channels
Channel positions                        : Front: L C R, Side: L R, LFE
Sampling rate                            : 48.0 KHz
Frame rate                               : 31.250 fps (1536 spf)
Compression mode                         : Lossy
Stream size                              : 354 MiB (8%)
Language                                 : English
Default                                  : Yes
Forced                                   : No




1 个附件 售价 大小 下载 时间

Do.I.Sound.Gay.2014.1080p.WEBRip.DD5.1.x264-TrollHD[btbtt.co].torrent 0 金币 91.40K 1565 次 10月前

#1楼
发帖时间:2017-01-11 23:17:40   |   回复数:3
liyouchai
超凡入圣№
谢谢楼主分享资源
10月前 #2楼
911degrees
一代宗师
非常感谢,谢谢分享
10月前 #3楼
blue23
隐世仙人♂
感谢楼主分享
10月前 #4楼
游客组