aoloffline
版主

[2014] [欧美] [纪录] [WEB-1080P] [BT下载]Lady.Valor.The.Kristin.Beck.Story.2014.1080p.WEBRip.DD2.0.x264-TrollHD 5.9

-->

◎译  名 

◎片  名 Lady Valor: The Kristin Beck Story

◎年  代 2014

◎国  家 美国

◎类  别 记录

◎IMDb评分  7.5/10 from 109 users

◎IMDb链接  http://www.imdb.com/title/tt3499084/

◎BT之家整理 http://www.btbtt.co

◎主  演 Kristin Beck


◎简  介


  In "Lady Valor", former U.S. Navy SEAL Christopher Beck embarks on a new mission as Kristin Beck as she lives her life truthfully as a transgender woman. In 2011, after 20 years of service on SEAL Team 1, she retired from service though continued to hide her true identity while working for the United States Government and the Pentagon. In 2013, a year and a half after retirement, Kristin came out publicly through LinkedIn and confirmed her true identity on CNN's Anderson Cooper 360 taking many friends and family by surprise. While many people have been supportive, some in the some in the public have expressed more bigotry than she ever expected. After a lifetime of service, Kristin has learned that her fight for life, liberty, and the pursuit of happiness did not end on the battlefield.



Video
ID                                       : 1
Format                                   : AVC
Format/Info                              : Advanced Video Codec
Format profile                           : High@L4.1
Format settings, CABAC                   : Yes
Format settings, ReFrames                : 4 frames
Codec ID                                 : V_MPEG4/ISO/AVC
Duration                                 : 1h 23mn
Bit rate                                 : 9 467 Kbps
Width                                    : 1 920 pixels
Height                                   : 1 040 pixels
Display aspect ratio                     : 1.85:1
Frame rate mode                          : Constant
Frame rate                               : 23.976 (24000/1001) fps
Color space                              : YUV
Chroma subsampling                       : 4:2:0
Bit depth                                : 8 bits
Scan type                                : Progressive
Bits/(Pixel*Frame)                       : 0.198
Stream size                              : 5.55 GiB (94%)
Writing library                          : x264 core 146 r2538 121396c
Encoding settings                        : cabac=1 / ref=4 / deblock=1:-2:-2 / analyse=0x3:0x133 / me=umh / subme=10 / psy=1 / psy_rd=1.00:0.15 / mixed_ref=1 / me_range=48 / chroma_me=1 / trellis=2 / 8x8dct=1 / cqm=0 / deadzone=21,11 / fast_pskip=1 / chroma_qp_offset=-3 / threads=12 / lookahead_threads=2 / sliced_threads=0 / nr=0 / decimate=0 / interlaced=0 / bluray_compat=0 / constrained_intra=0 / bframes=8 / b_pyramid=2 / b_adapt=2 / b_bias=0 / direct=3 / weightb=1 / open_gop=0 / weightp=2 / keyint=240 / keyint_min=23 / scenecut=40 / intra_refresh=0 / rc_lookahead=60 / rc=crf / mbtree=1 / crf=18.0 / qcomp=0.70 / qpmin=0 / qpmax=69 / qpstep=4 / vbv_maxrate=300000 / vbv_bufsize=300000 / crf_max=0.0 / nal_hrd=none / filler=0 / ip_ratio=1.30 / aq=1:0.90
Default                                  : Yes
Forced                                   : No

Audio
ID                                       : 2
Format                                   : AC-3
Format/Info                              : Audio Coding 3
Mode extension                           : CM (complete main)
Format settings, Endianness              : Big
Codec ID                                 : A_AC3
Duration                                 : 1h 23mn
Bit rate mode                            : Constant
Bit rate                                 : 640 Kbps
Channel(s)                               : 2 channels
Channel positions                        : Front: L R
Sampling rate                            : 48.0 KHz
Frame rate                               : 31.250 fps (1536 spf)
Compression mode                         : Lossy
Stream size                              : 384 MiB (6%)
Language                                 : English
Default                                  : Yes
Forced                                   : No





1 个附件 售价 大小 下载 时间

Lady.Valor.The.Kristin.Beck.Story.2014.1080p.WEBRip.DD2.0.x264-TrollHD[btbtt.co].torrent 0 金币 59.94K 1257 次 10月前

#1楼
发帖时间:2017-01-12 09:45:16   |   回复数:3
911degrees
一代宗师
非常感谢,谢谢分享
10月前 #2楼
blue23
隐世仙人♂
感谢楼主分享
10月前 #3楼
liyouchai
超凡入圣№
谢谢楼主分享资源
10月前 #4楼
游客组