aoloffline
版主

[2013] [欧美] [纪录] [WEB-1080P] [BT下载]我的牧场之家 My.Prairie.Home.2013.1080p.WEBRip.DD5.1.x264-TrollHD 4.18GB

-->

◎译  名 我的牧场之家 

◎片  名 My Prairie Home

◎年  代 2013

◎国  家 Canada

◎类  别 紀錄片 Documentary

◎语  言 英語 English

◎IMDb评分  6.4/10 from 53 users

◎IMDb链接  http://www.imdb.com/title/tt3203462/

◎BT之家整理 http://www.btbtt.co

◎片  长 77 min 23 s

◎导  演 Chelsea McMullan

◎主  演 Rae Spoon


◎简  介


  In Chelsea McMullan’s documentary-musical, My Prairie Home, indie singer Rae Spoon takes us on a playful, meditative and at times melancholic journey. Set against majestic images of the infinite expanses of the Canadian Prairies, Spoon sweetly croons us through their queer and musical coming of age. Interviews, performances and music sequences reveal Spoon’s inspiring process of building a life of their own, as a trans person and as a musician.


◎获奖情况


  第30届圣丹斯电影节  (2014)

  评审团大奖 世界电影单元纪录片(提名) Chelsea McMullan


  第14届温哥华影评人协会奖  (2014)

  最佳加拿大纪录片


Video
ID                                       : 1
Format                                   : AVC
Format/Info                              : Advanced Video Codec
Format profile                           : [email protected]
Format settings, CABAC                   : Yes
Format settings, ReFrames                : 4 frames
Codec ID                                 : V_MPEG4/ISO/AVC
Duration                                 : 1h 16mn
Bit rate                                 : 7 209 Kbps
Width                                    : 1 920 pixels
Height                                   : 1 080 pixels
Display aspect ratio                     : 16:9
Frame rate mode                          : Constant
Frame rate                               : 23.976 (24000/1001) fps
Color space                              : YUV
Chroma subsampling                       : 4:2:0
Bit depth                                : 8 bits
Scan type                                : Progressive
Bits/(Pixel*Frame)                       : 0.145
Stream size                              : 3.84 GiB (92%)
Writing library                          : x264 core 148 r2638 7599210
Encoding settings                        : cabac=1 / ref=4 / deblock=1:-2:-2 / analyse=0x3:0x133 / me=umh / subme=10 / psy=1 / psy_rd=1.00:0.15 / mixed_ref=1 / me_range=48 / chroma_me=1 / trellis=2 / 8x8dct=1 / cqm=0 / deadzone=21,11 / fast_pskip=1 / chroma_qp_offset=-3 / threads=12 / lookahead_threads=2 / sliced_threads=0 / nr=0 / decimate=0 / interlaced=0 / bluray_compat=0 / constrained_intra=0 / bframes=8 / b_pyramid=2 / b_adapt=2 / b_bias=0 / direct=3 / weightb=1 / open_gop=0 / weightp=2 / keyint=240 / keyint_min=23 / scenecut=40 / intra_refresh=0 / rc_lookahead=60 / rc=crf / mbtree=1 / crf=18.0 / qcomp=0.70 / qpmin=0 / qpmax=69 / qpstep=4 / vbv_maxrate=300000 / vbv_bufsize=300000 / crf_max=0.0 / nal_hrd=none / filler=0 / ip_ratio=1.30 / aq=1:0.90
Default                                  : Yes
Forced                                   : No

Audio
ID                                       : 2
Format                                   : AC-3
Format/Info                              : Audio Coding 3
Mode extension                           : CM (complete main)
Format settings, Endianness              : Big
Codec ID                                 : A_AC3
Duration                                 : 1h 16mn
Bit rate mode                            : Constant
Bit rate                                 : 640 Kbps
Channel(s)                               : 6 channels
Channel positions                        : Front: L C R, Side: L R, LFE
Sampling rate                            : 48.0 KHz
Frame rate                               : 31.250 fps (1536 spf)
Compression mode                         : Lossy
Stream size                              : 349 MiB (8%)
Language                                 : English
Default                                  : Yes
Forced                                   : No





1 个附件 售价 大小 下载 时间

My.Prairie.Home.2013.1080p.WEBRip.DD5.1.x264-TrollHD[btbtt.co].torrent 0 金币 84.17K 312 次 3月前

#1楼
发帖时间:2017-01-12 09:50:13   |   回复数:3
911degrees
一代宗师
非常感谢,谢谢分享
3月前 #2楼
blue23
超凡入圣№
感谢楼主分享
3月前 #3楼
liyouchai
超凡入圣№
谢谢楼主分享资源
3月前 #4楼
游客组