aoloffline
版主

[2011] [欧美] [惊悚] [WEB-1080P] [BT下载]生活区 The.Life.Zone.2011.1080p.WEBRip.AAC2.0.x264-TrollHD 5.68GB

-->

◎译  名 生活区

◎片  名 The Life Zone

◎年  代 2011

◎国  家 美国

◎类  别 惊悚

◎语  言 英语

◎上映日期 2011-06-10(霍博肯国际电影节)/2015-04-04(Cinedelphia电影节)

◎IMDb评分  2.2/10 from 400 users

◎IMDb链接  http://www.imdb.com/title/tt1786714/

◎BT之家整理 http://www.btbtt.co

◎片  长 81分钟(美国)

◎导  演 Rod Weber

◎主  演 罗伯特·劳吉亚 Robert Loggia

      琳赛·霍恩 Lindsey Haun

      马丁·科夫 Martin Kove


◎简  介


  通过一个神秘人物绑架了,三个女人发现自己被困在一个废弃的医院。



Video
ID                                       : 1
Format                                   : AVC
Format/Info                              : Advanced Video Codec
Format profile                           : High@L4
Format settings, CABAC                   : Yes
Format settings, ReFrames                : 4 frames
Format settings, GOP                     : M=4, N=48
Codec ID                                 : avc1
Codec ID/Info                            : Advanced Video Coding
Duration                                 : 1h 20mn
Bit rate mode                            : Constant
Bit rate                                 : 10 000 Kbps
Width                                    : 1 920 pixels
Height                                   : 816 pixels
Display aspect ratio                     : 2.35:1
Frame rate mode                          : Constant
Frame rate                               : 23.976 (24000/1001) fps
Color space                              : YUV
Chroma subsampling                       : 4:2:0
Bit depth                                : 8 bits
Scan type                                : Progressive
Bits/(Pixel*Frame)                       : 0.266
Stream size                              : 5.60 GiB (99%)
Language                                 : English
Encoded date                             : UTC 2014-07-04 17:48:38
Tagged date                              : UTC 2014-07-04 17:48:38
Color range                              : Limited
Color primaries                          : BT.709
Transfer characteristics                 : BT.709
Matrix coefficients                      : BT.709

Audio
ID                                       : 2
Format                                   : AAC
Format/Info                              : Advanced Audio Codec
Format profile                           : LC
Codec ID                                 : 40
Duration                                 : 1h 20mn
Bit rate mode                            : Variable
Bit rate                                 : 125 Kbps
Maximum bit rate                         : 396 Kbps
Channel(s)                               : 2 channels
Channel positions                        : Front: L R
Sampling rate                            : 48.0 KHz
Frame rate                               : 46.875 fps (1024 spf)
Compression mode                         : Lossy
Stream size                              : 72.0 MiB (1%)
Language                                 : English
Encoded date                             : UTC 2014-07-04 17:48:38
Tagged date                              : UTC 2014-07-04 17:48:38





1 个附件 售价 大小 下载 时间

The.Life.Zone.2011.1080p.WEBRip.AAC2.0.x264-TrollHD[btbtt.co].torrent 0 金币 57.36K 641 次 10月前

#1楼
发帖时间:2017-01-12 09:55:08   |   回复数:4
albb2188
一派掌门
感谢楼主提供分享影片资源!
10月前 #2楼
911degrees
一代宗师
非常感谢,谢谢分享
10月前 #3楼
blue23
隐世仙人♂
感谢楼主分享
10月前 #4楼
liyouchai
超凡入圣№
谢谢楼主分享资源
10月前 #5楼
游客组