aoloffline
版主

[更 早] [欧美] [动画] [WEB-1080P] [BT下载]天鹅公主 The.Swan.Princess.1994.1080p.WEBRip.AAC2.0.x264-TrollHD 6.3GB

-->

◎译  名 天鹅公主

◎片  名 The Swan Princess

◎年  代 1994

◎国  家 美国

◎类  别 动画/家庭/奇幻/爱情

◎语  言 英语

◎上映日期 1994-11-18

◎IMDb评分  6.4/10 from 18,110 users

◎IMDb链接  http://www.imdb.com/title/tt0111333/

◎BT之家整理 http://www.btbtt.co

◎豆瓣评分 7.6/10 from 489 users

◎豆瓣链接 https://movie.douban.com/subject/1307429/

◎片  长 Argentina: 90 分钟/Germany: 90 分钟/UK: 89 分钟/USA: 90 分钟

◎导  演 Richard Rich


◎简  介


  剧情

  改编自家喻户晓的童话故事《天鹅湖》,为迪士尼重量级制作群自组公司,独立筹制四年半后首度推出之经心大作。故事内容描述奥蒂公主被阴谋篡位的大臣呐霸施展法术,变成一只湖畔天鹅,仅于月光洒过湖面时才能暂时恢复人形。邻国青梅竹马的瑞德王子极力寻找公主下落,终于在湖畔找到公主,并以真爱破除魔咒,解救公主。


◎获奖情况


  第23届动画安妮奖  (1995)

  最佳动画长片(提名)


Video
ID                                       : 1
Format                                   : AVC
Format/Info                              : Advanced Video Codec
Format profile                           : [email protected]
Format settings, CABAC                   : Yes
Format settings, ReFrames                : 4 frames
Codec ID                                 : avc1
Codec ID/Info                            : Advanced Video Coding
Duration                                 : 1h 29mn
Bit rate mode                            : Constant
Bit rate                                 : 10 000 Kbps
Width                                    : 1 920 pixels
Height                                   : 1 080 pixels
Display aspect ratio                     : 16:9
Frame rate mode                          : Constant
Frame rate                               : 23.976 (24000/1001) fps
Color space                              : YUV
Chroma subsampling                       : 4:2:0
Bit depth                                : 8 bits
Scan type                                : Progressive
Bits/(Pixel*Frame)                       : 0.201
Stream size                              : 6.23 GiB (99%)
Language                                 : English
Encoded date                             : UTC 2014-11-27 16:57:35
Tagged date                              : UTC 2014-11-27 16:57:35
Color range                              : Limited
Color primaries                          : BT.709
Transfer characteristics                 : BT.709
Matrix coefficients                      : BT.709

Audio
ID                                       : 2
Format                                   : AAC
Format/Info                              : Advanced Audio Codec
Format profile                           : LC
Codec ID                                 : 40
Duration                                 : 1h 29mn
Bit rate mode                            : Variable
Bit rate                                 : 125 Kbps
Maximum bit rate                         : 308 Kbps
Channel(s)                               : 2 channels
Channel positions                        : Front: L R
Sampling rate                            : 48.0 KHz
Frame rate                               : 46.875 fps (1024 spf)
Compression mode                         : Lossy
Stream size                              : 80.0 MiB (1%)
Language                                 : English
Encoded date                             : UTC 2014-11-27 16:57:35
Tagged date                              : UTC 2014-11-27 16:57:35





1 个附件 售价 大小 下载 时间

The.Swan.Princess.1994.1080p.WEBRip.AAC2.0.x264-TrollHD[btbtt.co].torrent 0 金币 63.70K 909 次 3月前

#1楼
发帖时间:2017-01-12 10:02:50   |   回复数:3
911degrees
一代宗师
非常感谢,谢谢分享
3月前 #2楼
blue23
超凡入圣№
感谢楼主分享
3月前 #3楼
liyouchai
超凡入圣№
谢谢楼主分享资源
3月前 #4楼
游客组