aoloffline
版主

[2013] [欧美] [纪录] [WEB-1080P] [BT下载]Video.World.2013.1080p.WEBRip.DD2.0.x264-TrollHD 1.17GB

-->


暂无中文简介 


http://imdb.com/title/tt3388060/


Video World is like other movie rental stores. It's the best place in town to discover new films. It also went out of business. Documentary filmmaker Ben Churchillreturns to his hometown of Woodbury| Connecticut to capture the store's final weeks and celebrate the dying culture of local video stores.


Video
ID                                       : 1
Format                                   : AVC
Format/Info                              : Advanced Video Codec
Format profile                           : [email protected]
Format settings, CABAC                   : Yes
Format settings, ReFrames                : 4 frames
Codec ID                                 : V_MPEG4/ISO/AVC
Duration                                 : 16mn 50s
Bit rate                                 : 9 293 Kbps
Width                                    : 1 920 pixels
Height                                   : 1 080 pixels
Display aspect ratio                     : 16:9
Frame rate mode                          : Constant
Frame rate                               : 29.970 (30000/1001) fps
Color space                              : YUV
Chroma subsampling                       : 4:2:0
Bit depth                                : 8 bits
Scan type                                : Progressive
Bits/(Pixel*Frame)                       : 0.150
Stream size                              : 1.09 GiB (94%)
Writing library                          : x264 core 146 r2538 121396c
Encoding settings                        : cabac=1 / ref=4 / deblock=1:-2:-2 / analyse=0x3:0x133 / me=umh / subme=10 / psy=1 / psy_rd=1.00:0.15 / mixed_ref=1 / me_range=48 / chroma_me=1 / trellis=2 / 8x8dct=1 / cqm=0 / deadzone=21,11 / fast_pskip=1 / chroma_qp_offset=-3 / threads=12 / lookahead_threads=2 / sliced_threads=0 / nr=0 / decimate=0 / interlaced=0 / bluray_compat=0 / constrained_intra=0 / bframes=8 / b_pyramid=2 / b_adapt=2 / b_bias=0 / direct=3 / weightb=1 / open_gop=0 / weightp=2 / keyint=300 / keyint_min=29 / scenecut=40 / intra_refresh=0 / rc_lookahead=60 / rc=crf / mbtree=1 / crf=18.0 / qcomp=0.70 / qpmin=0 / qpmax=69 / qpstep=4 / vbv_maxrate=300000 / vbv_bufsize=300000 / crf_max=0.0 / nal_hrd=none / filler=0 / ip_ratio=1.30 / aq=1:0.90
Default                                  : Yes
Forced                                   : No

Audio
ID                                       : 2
Format                                   : AC-3
Format/Info                              : Audio Coding 3
Mode extension                           : CM (complete main)
Format settings, Endianness              : Big
Codec ID                                 : A_AC3
Duration                                 : 16mn 50s
Bit rate mode                            : Constant
Bit rate                                 : 640 Kbps
Channel(s)                               : 2 channels
Channel positions                        : Front: L R
Sampling rate                            : 48.0 KHz
Frame rate                               : 31.250 fps (1536 spf)
Compression mode                         : Lossy
Stream size                              : 77.1 MiB (6%)
Language                                 : English
Default                                  : Yes
Forced                                   : No



1 个附件 售价 大小 下载 时间

Video.World.2013.1080p.WEBRip.DD2.0.x264-TrollHD[btbtt.co].torrent 0 金币 23.97K 315 次 6天前

#1楼
发帖时间:2017-01-12 10:10:15   |   回复数:3
911degrees
一代宗师
非常感谢,谢谢分享
6天前 #2楼
blue23
超凡入圣№
感谢楼主分享
6天前 #3楼
liyouchai
一代宗师
谢谢楼主分享资源
5天前 #4楼
游客组