aoloffline
版主

[更 早] [欧美] [喜剧] [WEB-1080P] [BT下载]芳心何处/甜心伊人 Where.The.Heart.Is.2000.1080p.WEBRip.AAC2.0.x264-TrollHD 8.4GB

-->

◎译  名 芳心何处/甜心伊人/女孩第一名/芳心天涯/心归何处

◎片  名 Where the Heart Is

◎年  代 2000

◎国  家 美国

◎类  别 喜剧/剧情/爱情

◎语  言 英语

◎上映日期 2000-10-19

◎IMDb评分  6.8/10 from 27,515 users

◎IMDb链接  http://www.imdb.com/title/tt0198021/

◎豆瓣评分 7.6/10 from 1,998 users

◎豆瓣链接 https://movie.douban.com/subject/1297481/

◎BT之家整理 http://www.btbtt.co

◎片  长 120 分钟

◎导  演 Matt Williams

◎主  演 娜塔莉·波特曼 Natalie Portman

      艾什莉·贾德 Ashley Judd

      斯托卡特·詹宁 Stockard Channing

      琼·库萨克 Joan Cusack

      莎莉·菲尔德 Sally Field

      詹姆斯·弗莱恩 James Frain


◎简  介


  被母亲抛弃后,诺瓦利(娜塔莉·波特曼 Natalie Portman 饰)在一辆拖车里度过了自己的整个童年时期,如今,17岁的她也即将成为一个母亲了,在这样一个重要的时刻,男友威利(丹兰·布鲁诺 Dylan Bruno 饰)却选择了将她抛弃,流落街头的诺瓦利无处可去,只能偷偷寄宿在一家沃尔玛超市中。时间流逝,诺瓦利在超市中诞下了一名女婴,她也摇身一变成为了当地的“名人”。

  成名后,诺瓦利不仅得到了500元的资助,还获得了在沃尔玛工作的机会,与此同时,阔别多年的母亲也找到了诺瓦利,希望与她重修旧好共度余生。不幸的是,在卷跑了诺瓦利的财物后,母亲再一次消失了,好在有善良的修女和老实的图书管理员福尼(詹姆斯·弗莱恩 James Frain 饰)出手相助,诺瓦利和孩子总算找到了安身之所。


Video
ID                                       : 1
Format                                   : AVC
Format/Info                              : Advanced Video Codec
Format profile                           : [email protected]
Format settings, CABAC                   : Yes
Format settings, ReFrames                : 4 frames
Codec ID                                 : avc1
Codec ID/Info                            : Advanced Video Coding
Duration                                 : 1h 59mn
Bit rate mode                            : Constant
Bit rate                                 : 10 000 Kbps
Width                                    : 1 920 pixels
Height                                   : 1 080 pixels
Display aspect ratio                     : 16:9
Frame rate mode                          : Constant
Frame rate                               : 23.976 (24000/1001) fps
Color space                              : YUV
Chroma subsampling                       : 4:2:0
Bit depth                                : 8 bits
Scan type                                : Progressive
Bits/(Pixel*Frame)                       : 0.201
Stream size                              : 8.38 GiB (99%)
Language                                 : English
Encoded date                             : UTC 2014-12-19 02:44:59
Tagged date                              : UTC 2014-12-19 02:44:59
Color range                              : Limited
Color primaries                          : BT.709
Transfer characteristics                 : BT.709
Matrix coefficients                      : BT.709

Audio
ID                                       : 2
Format                                   : AAC
Format/Info                              : Advanced Audio Codec
Format profile                           : LC
Codec ID                                 : 40
Duration                                 : 1h 59mn
Bit rate mode                            : Variable
Bit rate                                 : 125 Kbps
Maximum bit rate                         : 188 Kbps
Channel(s)                               : 2 channels
Channel positions                        : Front: L R
Sampling rate                            : 48.0 KHz
Frame rate                               : 46.875 fps (1024 spf)
Compression mode                         : Lossy
Stream size                              : 108 MiB (1%)
Language                                 : English
Encoded date                             : UTC 2014-12-19 02:44:59
Tagged date                              : UTC 2014-12-19 02:44:59





1 个附件 售价 大小 下载 时间

Where.The.Heart.Is.2000.1080p.WEBRip.AAC2.0.x264-TrollHD[btbtt.co].torrent 0 金币 85.52K 413 次 6天前

#1楼
发帖时间:2017-01-12 10:13:27   |   回复数:3
911degrees
一代宗师
非常感谢,谢谢分享
6天前 #2楼
blue23
超凡入圣№
感谢楼主分享
6天前 #3楼
liyouchai
一代宗师
谢谢楼主分享资源
5天前 #4楼
游客组