aoloffline
版主

[2013] [欧美] [喜剧] [WEB-1080P] [BT下载]成人世界 Adult.World.2013.1080p.WEBRip.AAC2.0.x264-TrollHD 6.6GB

-->

◎译  名 成人世界

◎片  名 Adult World

◎年  代 2013

◎国  家 美国

◎类  别 喜剧

◎语  言 英语

◎上映日期 2013-04-18(翠贝卡电影节)/2014-02-14(美国)

◎IMDb评分  6.2/10 from 13,730 users

◎IMDb链接  http://www.imdb.com/title/tt1067765/

◎豆瓣评分 6.3/10 from 711 users

◎豆瓣链接 https://movie.douban.com/subject/10545079/

◎BT之家整理 http://www.btbtt.co

◎片  长 97分钟

◎导  演 斯科特·科菲 Scott Coffey

◎主  演 约翰·库萨克 John Cusack

      阿曼德·里斯科 Armando Riesco

      珊农·沃德华德 Shannon Woodward

      克里斯·里吉 Chris Riggi

      斯科特·科菲 Scott Coffey

      艾玛·罗伯茨 Emma Roberts

      伊万·彼得斯 Evan Peters

      克劳斯·利特曼 Cloris Leachman

      Catherine Lloyd Burns

      杰里·阿德勒 Jerry Adler


◎简  介


  一个即将毕业的大学生,她深信自己会成为一个伟大的诗人,而并不是每天在成人书店工作。


Video
ID                                       : 1
Format                                   : AVC
Format/Info                              : Advanced Video Codec
Format profile                           : [email protected]
Format settings, CABAC                   : Yes
Format settings, ReFrames                : 4 frames
Codec ID                                 : avc1
Codec ID/Info                            : Advanced Video Coding
Duration                                 : 1h 33mn
Bit rate mode                            : Constant
Bit rate                                 : 10 000 Kbps
Width                                    : 1 920 pixels
Height                                   : 1 080 pixels
Display aspect ratio                     : 16:9
Frame rate mode                          : Constant
Frame rate                               : 23.976 (24000/1001) fps
Color space                              : YUV
Chroma subsampling                       : 4:2:0
Bit depth                                : 8 bits
Scan type                                : Progressive
Bits/(Pixel*Frame)                       : 0.201
Stream size                              : 6.52 GiB (99%)
Language                                 : English
Encoded date                             : UTC 2015-03-25 03:42:33
Tagged date                              : UTC 2015-03-25 03:42:33
Color range                              : Limited
Color primaries                          : BT.709
Transfer characteristics                 : BT.709
Matrix coefficients                      : BT.709

Audio
ID                                       : 2
Format                                   : AAC
Format/Info                              : Advanced Audio Codec
Format profile                           : LC
Codec ID                                 : 40
Duration                                 : 1h 33mn
Bit rate mode                            : Variable
Bit rate                                 : 125 Kbps
Maximum bit rate                         : 288 Kbps
Channel(s)                               : 2 channels
Channel positions                        : Front: L R
Sampling rate                            : 48.0 KHz
Frame rate                               : 46.875 fps (1024 spf)
Compression mode                         : Lossy
Stream size                              : 83.8 MiB (1%)
Language                                 : English
Encoded date                             : UTC 2015-03-25 03:42:33
Tagged date                              : UTC 2015-03-25 03:42:33





1 个附件 售价 大小 下载 时间

Adult.World.2013.1080p.WEBRip.AAC2.0.x264-TrollHD[btbtt.co].torrent 0 金币 66.67K 1215 次 6天前

#1楼
发帖时间:2017-01-12 10:17:07   |   回复数:3
911degrees
一代宗师
非常感谢,谢谢分享
6天前 #2楼
blue23
超凡入圣№
感谢楼主分享
6天前 #3楼
liyouchai
一代宗师
谢谢楼主分享资源
5天前 #4楼
游客组