aoloffline
版主

[2013] [欧美] [喜剧] [WEB-1080P] [BT下载]艾莫奇遇记 Adventures.Of.Elmo.1999.1080p.WEBRip.AAC2.0.x264-TrollHD 4.2GB

-->

◎译  名 艾莫奇遇记/Elmo历险记

◎片  名 The Adventures of Elmo in Grouchland

◎年  代 1999

◎国  家 美国

◎类  别 冒险/喜剧/家庭/奇幻

◎语  言 英语

◎上映日期 1999-09-16

◎IMDb评分  5.8/10 from 2,114 users

◎IMDb链接  http://www.imdb.com/title/tt0159421/

◎豆瓣评分 6.0/10 from 19 users

◎豆瓣链接 https://movie.douban.com/subject/1300234/

◎BT之家整理 http://www.btbtt.co

◎片  长 73分钟

◎导  演 加里·哈勒沃尔森 Gary Halvorson

◎主  演 凯文·克拉什 Kevin Clash

      曼迪·帕廷金 Mandy Patinkin

      凡妮莎·威廉斯 Vanessa Williams

      Sonia Manzano


◎简  介


  在这个世界艾莫最喜欢的还是他那块蓝绒毛毯,他甚至发誓永不离开它。直到有一天,艾莫的好友佐伊看到他的毛毯,非常喜欢,向他讨要。艾莫当然一口回绝,谁知这时杀出个坐飞毯而来的凯莉一把从他们手中抢走毛毯飞向芝麻街。艾莫在大鸟的指引下在奥斯卡的垃圾箱中找到了挂在钉子上的毛毯,当他伸手去拽时,一股居大的引力将他吸到了另一个奇妙的世界……



Video
ID                                       : 1
Format                                   : AVC
Format/Info                              : Advanced Video Codec
Format profile                           : [email protected]
Format settings, CABAC                   : Yes
Format settings, ReFrames                : 4 frames
Format settings, GOP                     : M=4, N=50
Codec ID                                 : avc1
Codec ID/Info                            : Advanced Video Coding
Duration                                 : 1h 10mn
Bit rate mode                            : Constant
Bit rate                                 : 10 000 Kbps
Width                                    : 1 920 pixels
Height                                   : 1 080 pixels
Display aspect ratio                     : 16:9
Frame rate mode                          : Constant
Frame rate                               : 25.000 fps
Standard                                 : PAL
Color space                              : YUV
Chroma subsampling                       : 4:2:0
Bit depth                                : 8 bits
Scan type                                : Progressive
Bits/(Pixel*Frame)                       : 0.193
Stream size                              : 4.90 GiB (99%)
Language                                 : English
Encoded date                             : UTC 2014-12-21 17:20:14
Tagged date                              : UTC 2014-12-21 17:20:14
Color range                              : Limited
Color primaries                          : BT.709
Transfer characteristics                 : BT.709
Matrix coefficients                      : BT.709

Audio
ID                                       : 2
Format                                   : AAC
Format/Info                              : Advanced Audio Codec
Format profile                           : LC
Codec ID                                 : 40
Duration                                 : 1h 10mn
Bit rate mode                            : Variable
Bit rate                                 : 125 Kbps
Maximum bit rate                         : 172 Kbps
Channel(s)                               : 2 channels
Channel positions                        : Front: L R
Sampling rate                            : 48.0 KHz
Frame rate                               : 46.875 fps (1024 spf)
Compression mode                         : Lossy
Stream size                              : 62.9 MiB (1%)
Language                                 : English
Encoded date                             : UTC 2014-12-21 17:20:14
Tagged date                              : UTC 2014-12-21 17:20:14




1 个附件 售价 大小 下载 时间

Adventures.Of.Elmo.In.Grouchland.1999.1080p.WEBRip.AAC2.0.x264-TrollHD[btbtt.co].torrent 0 金币 99.86K 571 次 3月前

#1楼
发帖时间:2017-01-12 10:18:47   |   回复数:3
911degrees
一代宗师
非常感谢,谢谢分享
3月前 #2楼
blue23
超凡入圣№
感谢楼主分享
3月前 #3楼
liyouchai
超凡入圣№
谢谢楼主分享资源
3月前 #4楼
游客组