小Q呆
版主

[2016] [欧美] [动作] [BD-720P] [BT下载]印第安纳波利斯号:勇者无惧[简繁]USS.Indianapolis.2016.720p.BluRay.DTS.x264-HDS 4.9GB

-->

内含简繁中字

◎译  名 印第安纳波利斯号:勇者无惧/印第安纳波利斯号:勇者

◎片  名 USS Indianapolis: Men of Courage

◎年  代 2016

◎国  家 美国

◎类  别 动作/战争

◎语  言 英语

◎上映日期 2016-10-14(美国)

◎IMDb评分  5.1/10 from 2,043 users

◎IMDb链接  http://www.imdb.com/title/tt2032572/

◎豆瓣评分 6.1/10 from 954 users

◎豆瓣链接 https://movie.douban.com/subject/26322816/

◎BT之家整理 http://www.btbtt.co

◎片  长 128分钟

◎导  演 马里奥·范·皮布尔斯 Mario Van Peebles

◎主  演 尼古拉斯·凯奇 Nicolas Cage

      汤姆·塞兹摩尔 Tom Sizemore

      托马斯·简 Thomas Jane

      马特·兰特尔 Matt Lanter

      詹姆斯·瑞马尔 James Remar

      布莱恩·普莱斯列 Brian Presley

      艾米丽·坦南特 Emily Tennant

      亚当·思格特·米勒 Adam Scott Miller

      柯迪·沃克 Cody Walker

      竹内东 Yutaka Takeuchi


◎简  介


  本片改编自真实事件,尼古拉斯·凯奇将饰演查尔斯·巴特勒·麦克沃伊上尉,其船只在1945年7月于南太平洋被鱼雷击中,船上载有第一枚原子弹。

  上船的1196名船员有大约300名随着船只死亡,其余的在等待救援的时候面临着日晒、脱水、盐水浸蚀和鲨鱼攻击。只有317名水手被救,麦卡沃伊被送上军事法庭,半个世纪后才被免除罪过。


Complete name : USS.Indianapolis.Men.of.Courage.2016.720p.BluRay.DTS.x264-HDS[PRiME].mkv
Format : Matroska
Format version : Version 4 / Version 2
File size : 4.97 GiB
Duration : 2 h 10 min
Overall bit rate : 5 461 kb/s
Movie name : USS Indianapolis Men of Courage 2016 720p BluRay DTS x264-HDS
Encoded date : UTC 2017-01-11 11:31:44
Writing application : mkvmerge v9.7.1 (\'Pandemonium\') 64bit
Writing library : libebml v1.3.4 + libmatroska v1.4.5

Video
ID : 1
Format : AVC
Format/Info : Advanced Video Codec
Format profile : High@L4.1
Format settings, CABAC : Yes
Format settings, ReFrames : 12 frames
Codec ID : V_MPEG4/ISO/AVC
Duration : 2 h 10 min
Bit rate : 4 615 kb/s
Width : 1 280 pixels
Height : 536 pixels
Display aspect ratio : 2.40:1
Frame rate mode : Constant
Frame rate : 23.976 (24000/1001) FPS
Color space : YUV
Chroma subsampling : 4:2:0
Bit depth : 8 bits
Scan type : Progressive
Bits/(Pixel*Frame) : 0.281
Stream size : 4.20 GiB (85%)
Title : panyping@HDSky
Writing library : x264 core 148 r2699+6+41 29a38aa Yuuki [8-bit@4:2:0 X86_64][GCC 5.3.0]
Encoding settings : cabac=1 / ref=12 / deblock=1:-3:-3 / analyse=0x3:0x113 / me=umh / subme=11 / psy=1 / fade_compensate=0.00 / psy_rd=1.00:0.05 / mixed_ref=1 / me_range=32 / chroma_me=1 / trellis=2 / 8x8dct=1 / cqm=0 / deadzone=21,11 / fast_pskip=0 / chroma_qp_offset=-2 / threads=32 / lookahead_threads=4 / sliced_threads=0 / nr=0 / decimate=1 / interlaced=0 / bluray_compat=0 / constrained_intra=0 / fgo=0 / bframes=8 / b_pyramid=2 / b_adapt=2 / b_bias=0 / direct=3 / weightb=1 / open_gop=0 / weightp=2 / keyint=250 / keyint_min=23 / scenecut=40 / intra_refresh=0 / rc=crf / mbtree=0 / crf=17.8000 / qcomp=0.60 / qpmin=0:0:0 / qpmax=69:69:69 / qpstep=4 / ip_ratio=1.40 / pb_ratio=1.30 / aq=3:0.90
Default : Yes
Forced : No

Audio
ID : 2
Format : DTS
Format/Info : Digital Theater Systems
Mode : 16
Format settings, Endianness : Big
Codec ID : A_DTS
Duration : 2 h 10 min
Bit rate mode : Constant
Bit rate : 768 kb/s
Channel(s) : 6 channels
Channel positions : Front: L C R, Side: L R, LFE
Sampling rate : 48.0 kHz
Frame rate : 93.750 FPS (512 spf)
Bit depth : 24 bits
Compression mode : Lossy
Stream size : 715 MiB (14%)
Title : English
Language : English
Default : Yes
Forced : No

Text #1
ID : 3
Format : PGS
Muxing mode : zlib
Codec ID : S_HDMV/PGS
Codec ID/Info : Picture based subtitle format used on BDs/HD-DVDs
Duration : 1 h 59 min
Bit rate : 18.9 kb/s
Count of elements : 2090
Stream size : 16.2 MiB (0%)
Title : CHS
Language : Chinese
Default : Yes
Forced : No

Text #2
ID : 4
Format : PGS
Muxing mode : zlib
Codec ID : S_HDMV/PGS
Codec ID/Info : Picture based subtitle format used on BDs/HD-DVDs
Duration : 1 h 59 min
Bit rate : 15.4 kb/s
Count of elements : 2090
Stream size : 13.2 MiB (0%)
Title : CHS
Language : Chinese
Default : No
Forced : No

Text #3
ID : 5
Format : PGS
Muxing mode : zlib
Codec ID : S_HDMV/PGS
Codec ID/Info : Picture based subtitle format used on BDs/HD-DVDs
Duration : 1 h 59 min
Bit rate : 19.7 kb/s
Count of elements : 2090
Stream size : 16.9 MiB (0%)
Title : CHT
Language : Chinese
Default : No
Forced : No

Text #4
ID : 6
Format : PGS
Muxing mode : zlib
Codec ID : S_HDMV/PGS
Codec ID/Info : Picture based subtitle format used on BDs/HD-DVDs
Duration : 1 h 59 min
Bit rate : 15.8 kb/s
Count of elements : 2090
Stream size : 13.5 MiB (0%)
Title : CHT
Language : Chinese
Default : No
Forced : No

Text #5
ID : 7
Format : PGS
Muxing mode : zlib
Codec ID : S_HDMV/PGS
Codec ID/Info : Picture based subtitle format used on BDs/HD-DVDs
Duration : 1 h 59 min
Bit rate : 12.2 kb/s
Count of elements : 3138
Stream size : 10.5 MiB (0%)
Title : ENG
Language : English
Default : No
Forced : No

Menu
00:00:00.000 : en:00:00:00.000
00:07:27.238 : en:00:07:27.238
00:15:49.657 : en:00:15:49.657
00:22:52.663 : en:00:22:52.663
00:30:16.148 : en:00:30:16.148
00:37:44.554 : en:00:37:44.554
00:45:55.586 : en:00:45:55.586
00:53:28.455 : en:00:53:28.455
00:59:52.339 : en:00:59:52.339
01:07:39.681 : en:01:07:39.681
01:15:58.387 : en:01:15:58.387
01:23:01.476 : en:01:23:01.476
01:31:18.139 : en:01:31:18.139
01:37:37.685 : en:01:37:37.685
01:45:20.022 : en:01:45:20.022
01:53:53.869 : en:01:53:53.869

Screens.png

Click Image To View Full Size

e8ZIm.th.jpg
Click To View Screenshot
Click To View Screenshot
Click To View Screenshot


1 个附件 售价 大小 下载 时间

USS.Indianapolis.Men.of.Courage.2016.720p.BluRay.DTS.x264-HDS[btbtt.co].torrent 0 金币 7.41K 2546 次 10月前

#1楼
发帖时间:2017-01-12 16:43:42   |   回复数:5
zma729
武林高手
good ... Thanks a lot ! 感谢楼主 ! 感谢 !
10月前 #2楼
tanchoohoon
一派掌门
感谢楼主的无私分享
10月前 #3楼
blue23
隐世仙人♂
感谢楼主分享
10月前 #4楼
liyouchai
超凡入圣№
谢谢楼主分享资源
10月前 #5楼
zma729
武林高手
印第安纳波利斯号:勇者无惧
9月前 #6楼
游客组