小Q呆
版主

[2015] [其他] [战争] [BD-720P] [BT下载]战争/英雄战犯/一场战争 A.War.2015.FRENCH.720p.BluRay.x264-LOST 4.4GB

-->

◎译  名 战争/英雄战犯(港)/一场战争

◎片  名 Krigen

◎年  代 2015

◎国  家 丹麦

◎类  别 剧情/战争

◎语  言 阿拉伯语/英语/丹麦语

◎上映日期 2015-09-10(丹麦)

◎IMDb评分  7.1/10 from 5,384 users

◎IMDb链接  http://www.imdb.com/title/tt3830162/

◎豆瓣评分 6.7/10 from 1,340 users

◎豆瓣链接 https://movie.douban.com/subject/25962590/

◎BT之家整理 http://www.btbtt.co 

◎片  长 115分钟

◎导  演 托比亚斯·林道赫姆 Tobias Lindholm

◎主  演 皮鲁·埃斯贝克 Pilou Asbæk

      图娃·诺沃妮 Tuva Novotny

      达尔·萨利姆 Dar Salim

      索伦·莫灵 Søren Malling

      夏洛特·蒙克 Charlotte Munck

      艾历克斯·休·安德森 Alex Høgh Andersen

      杜菲·阿尔-加布尔 Dulfi Al-Jabouri

      雅各布·弗劳伦德 Jakob Frølund

      菲利普·辛·丹白克 Phillip Sem Dambæk


◎简  介


  连长Claus M. Pedersen率领着他的士兵驻扎在阿富汗的一个省。远在丹麦,Claus的妻子Maria的生活也遇到了很多的烦恼。丈夫在很远的地方参加战争,让她提心吊胆,而且孩子们也哭闹着想见到自己的父亲。在一次看似寻常的任务执行当中,士兵被困在了火力凶猛的包围圈之内。为了拯救他的士兵,Claus做出了一个会给他自己以及他的家庭造成难以想象后果的决定。


◎获奖情况


  第88届奥斯卡金像奖  (2016)

  最佳外语片(提名)



Complete name : a.war.2015.french.720p.bluray.x264-lost.mkv
Format : Matroska
Format version : Version 2
File size : 4.37 GiB
Duration : 1 h 55 min
Overall bit rate : 5 412 kb/s
Writing application : mkvmerge v6.6.0 (\'The Edge Of The In Between\') built on Dec 1 2013 17:55:00
Writing library : libebml v1.3.0 + libmatroska v1.4.1

Video
ID : 1
Format : AVC
Format/Info : Advanced Video Codec
Format profile : [email protected]
Format settings, CABAC : Yes
Format settings, ReFrames : 5 frames
Codec ID : V_MPEG4/ISO/AVC
Duration : 1 h 55 min
Bit rate : 4 773 kb/s
Width : 1 280 pixels
Height : 696 pixels
Display aspect ratio : 1.85:1
Frame rate mode : Constant
Frame rate : 24.000 FPS
Color space : YUV
Chroma subsampling : 4:2:0
Bit depth : 8 bits
Scan type : Progressive
Bits/(Pixel*Frame) : 0.223
Stream size : 3.76 GiB (86%)
Writing library : x264 core 148 r2744 b97ae06
Encoding settings : cabac=1 / ref=5 / deblock=1:0:0 / analyse=0x3:0x113 / me=umh / subme=8 / psy=1 / psy_rd=1.00:0.00 / mixed_ref=1 / me_range=16 / chroma_me=1 / trellis=1 / 8x8dct=1 / cqm=0 / deadzone=21,11 / fast_pskip=1 / chroma_qp_offset=-2 / threads=22 / lookahead_threads=3 / sliced_threads=0 / nr=0 / decimate=1 / interlaced=0 / bluray_compat=0 / constrained_intra=0 / bframes=3 / b_pyramid=2 / b_adapt=2 / b_bias=0 / direct=3 / weightb=1 / open_gop=0 / weightp=2 / keyint=240 / keyint_min=24 / scenecut=40 / intra_refresh=0 / rc_lookahead=50 / rc=2pass / mbtree=1 / bitrate=4773 / ratetol=1.0 / qcomp=0.60 / qpmin=0 / qpmax=69 / qpstep=4 / cplxblur=20.0 / qblur=0.5 / ip_ratio=1.40 / aq=1:1.00
Language : English
Default : Yes
Forced : No

Audio
ID : 2
Format : AC-3
Format/Info : Audio Coding 3
Mode extension : CM (complete main)
Format settings, Endianness : Big
Codec ID : A_AC3
Duration : 1 h 55 min
Bit rate mode : Constant
Bit rate : 640 kb/s
Channel(s) : 6 channels
Channel positions : Front: L C R, Side: L R, LFE
Sampling rate : 48.0 kHz
Frame rate : 31.250 FPS (1536 spf)
Compression mode : Lossy
Stream size : 529 MiB (12%)
Title : French AC3 640kbps
Language : French
Default : Yes
Forced : No

Text
ID : 3
Format : UTF-8
Codec ID : S_TEXT/UTF8
Codec ID/Info : UTF-8 Plain Text
Title : Forced
Language : French
Default : Yes
Forced : Yes

Menu
00:00:00.000 : en:00:00:00.000
00:19:42.042 : en:00:19:42.042
00:42:26.125 : en:00:42:26.125
00:59:46.250 : en:00:59:46.250
01:17:03.417 : en:01:17:03.417
01:29:08.542 : en:01:29:08.542
01:44:32.458 : en:01:44:32.458
01:51:16.417 : en:01:51:16.417

Screens.png

Click Image To View Full Size

e8PCs.th.jpg
Click To View Screenshot
Click To View Screenshot
Click To View Screenshot


1 个附件 售价 大小 下载 时间

A.War.2015.FRENCH.720p.BluRay.x264-LOST[btbtt.co].torrent 0 金币 6.78K 735 次 6天前

#1楼
发帖时间:2017-01-12 16:51:40   |   回复数:4
blue23
超凡入圣№
感谢楼主分享
6天前 #2楼
baishui0275
江湖小虾
谢谢楼主分享!!!
5天前 #3楼
liyouchai
一代宗师
谢谢楼主分享资源
5天前 #4楼
911degrees
一代宗师
非常感谢,谢谢分享
5天前 #5楼
游客组