aoloffline
版主

[更 早] [欧美] [喜剧] [WEB-1080P] [BT下载]天才宝贝 Baby.Geniuses.1999.1080p.WEBRip.DD5.1.x264-monkee 6.43GB

-->

◎译  名 天才宝贝

◎片  名 Baby Geniuses

◎年  代 1999

◎国  家 美国

◎类  别 喜剧/犯罪/家庭/科幻

◎语  言 英语

◎上映日期 1999-03-12(美国)

◎IMDb评分  2.6/10 from 20,077 users

◎IMDb链接  http://www.imdb.com/title/tt0118665/

◎豆瓣评分 7.0/10 from 672 users

◎豆瓣链接 https://movie.douban.com/subject/1299440/

◎BT之家整理 http://www.btbtt.co 

◎片  长 97 分钟

◎导  演 鲍勃·克拉克 Bob Clark

◎主  演 凯瑟琳·特纳 Kathleen Turner

      克里斯托弗·洛伊德 Christopher Lloyd

      金·凯特罗尔 Kim Cattrall


◎简  介


  艾莉娜博士发现婴儿在诞生时都是天才,直到两岁之后开始使用成人语,才丧生这种天赋。博士企图运用婴儿能量来统治世界,一场大人与两岁小孩之间斗智斗勇的战争开始了!


Video
ID                                       : 1
Format                                   : AVC
Format/Info                              : Advanced Video Codec
Format profile                           : [email protected]
Format settings, CABAC                   : Yes
Format settings, ReFrames                : 4 frames
Codec ID                                 : avc1
Codec ID/Info                            : Advanced Video Coding
Duration                                 : 1h 30mn
Bit rate mode                            : Constant
Bit rate                                 : 10 000 Kbps
Width                                    : 1 920 pixels
Height                                   : 1 080 pixels
Display aspect ratio                     : 16:9
Frame rate mode                          : Constant
Frame rate                               : 25.000 fps
Standard                                 : PAL
Color space                              : YUV
Chroma subsampling                       : 4:2:0
Bit depth                                : 8 bits
Scan type                                : Progressive
Bits/(Pixel*Frame)                       : 0.193
Stream size                              : 6.34 GiB (99%)
Language                                 : English
Encoded date                             : UTC 2015-03-25 04:56:40
Tagged date                              : UTC 2015-03-25 04:56:40
Color range                              : Limited
Color primaries                          : BT.709
Transfer characteristics                 : BT.709
Matrix coefficients                      : BT.709

Audio
ID                                       : 2
Format                                   : AAC
Format/Info                              : Advanced Audio Codec
Format profile                           : LC
Codec ID                                 : 40
Duration                                 : 1h 30mn
Bit rate mode                            : Variable
Bit rate                                 : 125 Kbps
Maximum bit rate                         : 158 Kbps
Channel(s)                               : 2 channels
Channel positions                        : Front: L R
Sampling rate                            : 48.0 KHz
Frame rate                               : 46.875 fps (1024 spf)
Compression mode                         : Lossy
Stream size                              : 81.5 MiB (1%)
Language                                 : English
Encoded date                             : UTC 2015-03-25 04:56:40
Tagged date                              : UTC 2015-03-25 04:56:40





1 个附件 售价 大小 下载 时间

Baby.Geniuses.1999.1080p.WEBRip.DD5.1.x264-monkee[btbtt.co].torrent 0 金币 64.87K 456 次 1月前

#1楼
发帖时间:2017-01-12 17:53:06   |   回复数:3
blue23
超凡入圣№
感谢楼主分享
1月前 #2楼
liyouchai
一代宗师
谢谢楼主分享资源
1月前 #3楼
911degrees
一代宗师
非常感谢,谢谢分享
1月前 #4楼
游客组