aoloffline
版主

[更 早] [欧美] [动画] [WEB-720P] [BT下载]酷狗上学记/老师的宠物 Teachers.Pet.2004.720p.WEBRip.AAC2.0.x264-TrollHD 3GB

-->

◎译  名 酷狗上学记/老师的宠物

◎片  名 Teacher's Pet

◎年  代 2004

◎国  家 美国

◎类  别 动画/家庭/喜剧/奇幻/歌舞

◎语  言 英语

◎上映日期 2004-01-16

◎IMDb评分  5.8/10 from 1,264 users

◎IMDb链接  http://www.imdb.com/title/tt0350194/

◎豆瓣评分 7.4/10 from 101 users

◎豆瓣链接 https://movie.douban.com/subject/1309082/

◎BT之家整理 http://www.btbtt.co 

◎片  长 USA: 74 分钟

◎导  演 Timothy Björklund


◎简  介


  这是一个关于传奇狗“史帕特”(内森·莱恩 配音)的故事,它是一只会说话的超级酷狗。学会了说话的史帕特并不满足,它希望能够成为了一个真正的男孩。在著名的伊万教授(凯尔西·格拉默 配音)的帮助下,通过DNA转变,史帕特获得了人类的思维和性格。


Video
ID                                       : 1
Format                                   : AVC
Format/Info                              : Advanced Video Codec
Format profile                           : High@L3.1
Format settings, CABAC                   : Yes
Format settings, ReFrames                : 4 frames
Codec ID                                 : avc1
Codec ID/Info                            : Advanced Video Coding
Duration                                 : 1h 10mn
Bit rate mode                            : Constant
Bit rate                                 : 6 000 Kbps
Width                                    : 1 280 pixels
Height                                   : 720 pixels
Display aspect ratio                     : 16:9
Frame rate mode                          : Constant
Frame rate                               : 25.000 fps
Standard                                 : PAL
Color space                              : YUV
Chroma subsampling                       : 4:2:0
Bit depth                                : 8 bits
Scan type                                : Progressive
Bits/(Pixel*Frame)                       : 0.260
Stream size                              : 2.97 GiB (98%)
Language                                 : English
Encoded date                             : UTC 2014-10-24 00:45:26
Tagged date                              : UTC 2014-10-24 00:45:26
Color range                              : Limited
Color primaries                          : BT.709
Transfer characteristics                 : BT.709
Matrix coefficients                      : BT.709

Audio
ID                                       : 2
Format                                   : AAC
Format/Info                              : Advanced Audio Codec
Format profile                           : LC
Codec ID                                 : 40
Duration                                 : 1h 10mn
Bit rate mode                            : Variable
Bit rate                                 : 125 Kbps
Maximum bit rate                         : 242 Kbps
Channel(s)                               : 2 channels
Channel positions                        : Front: L R
Sampling rate                            : 48.0 KHz
Frame rate                               : 46.875 fps (1024 spf)
Compression mode                         : Lossy
Stream size                              : 63.5 MiB (2%)
Language                                 : English
Encoded date                             : UTC 2014-10-24 00:45:26
Tagged date                              : UTC 2014-10-24 00:45:26




1 个附件 售价 大小 下载 时间

Teachers.Pet.2004.720p.WEBRip.AAC2.0.x264-TrollHD[btbtt.co].torrent 0 金币 61.25K 781 次 10月前

#1楼
发帖时间:2017-01-12 18:07:56   |   回复数:3
blue23
隐世仙人♂
感谢楼主分享
10月前 #2楼
liyouchai
超凡入圣№
谢谢楼主分享资源
10月前 #3楼
911degrees
一代宗师
非常感谢,谢谢分享
10月前 #4楼
游客组