aoloffline
版主

[更 早] [欧美] [喜剧] [WEB-1080P] [BT下载]看狗在说话 Homeward.Bound.1993.1080p.WEBRip.AAC2.0.x264-TrollHD 5.7GB

-->

◎译  名 看狗在说话/猫狗也疯狂

◎片  名 Homeward Bound: The Incredible Journey

◎年  代 1993

◎国  家 美国

◎类  别 冒险/剧情/家庭/喜剧

◎语  言 英语

◎上映日期 1993-02-03(美国)

◎IMDb评分  6.9/10 from 34,154 users

◎IMDb链接  http://www.imdb.com/title/tt0107131/

◎豆瓣评分 8.9/10 from 753 users

◎豆瓣链接 https://movie.douban.com/subject/1294998/

◎BT之家整理 http://www.btbtt.co 

◎片  长 84 分钟

◎导  演 杜维因·邓纳姆 Duwayne Dunham

◎主  演 迈克尔·J·福克斯 Michael J. Fox

      金·格雷斯特 Kim Greist

      Ed Bernard


◎简  介


  钱斯(迈克尔·J·福克斯 Michael J. Fox 配音)、塞西(莎莉·菲尔德 Sally Field 配音)和阴影(唐·阿米契 Don Ameche 配音)是三位相处多年的好友,彼此之间感情十分要好。不过,值得一提的是,它们三位并非人类,而是小主人莫利(Mariah Milner 饰)饲养的宠物。

  某日,由于工作的关系,莫利的父母将这两狗一猫暂时寄养在朋友的农场中,然而,早就习惯了主人日日陪伴的他们误以为遭到了抛弃,心中充满了不安和恐惧,三位小能手决定联合起来踏上旅途,靠自己的力量找到回家的路。对于三只动物来说,这一路充满了变故与风险,凭借着小小的身躯,它们真的能够如愿回到主人的怀抱吗?


Video
ID                                       : 1
Format                                   : AVC
Format/Info                              : Advanced Video Codec
Format profile                           : [email protected]
Format settings, CABAC                   : Yes
Format settings, ReFrames                : 4 frames
Format settings, GOP                     : M=4, N=50
Codec ID                                 : avc1
Codec ID/Info                            : Advanced Video Coding
Duration                                 : 1h 20mn
Bit rate mode                            : Constant
Bit rate                                 : 10 000 Kbps
Width                                    : 1 920 pixels
Height                                   : 1 080 pixels
Display aspect ratio                     : 16:9
Frame rate mode                          : Constant
Frame rate                               : 25.000 fps
Standard                                 : PAL
Color space                              : YUV
Chroma subsampling                       : 4:2:0
Bit depth                                : 8 bits
Scan type                                : Progressive
Bits/(Pixel*Frame)                       : 0.193
Stream size                              : 5.63 GiB (99%)
Language                                 : English
Encoded date                             : UTC 2014-01-16 14:08:02
Tagged date                              : UTC 2014-01-16 14:08:02
Color range                              : Limited
Color primaries                          : BT.709
Transfer characteristics                 : BT.709
Matrix coefficients                      : BT.709

Audio
ID                                       : 2
Format                                   : AAC
Format/Info                              : Advanced Audio Codec
Format profile                           : LC
Codec ID                                 : 40
Duration                                 : 1h 20mn
Bit rate mode                            : Variable
Bit rate                                 : 125 Kbps
Maximum bit rate                         : 176 Kbps
Channel(s)                               : 2 channels
Channel positions                        : Front: L R
Sampling rate                            : 48.0 KHz
Frame rate                               : 46.875 fps (1024 spf)
Compression mode                         : Lossy
Stream size                              : 72.4 MiB (1%)
Language                                 : English
Encoded date                             : UTC 2014-01-16 14:08:02
Tagged date                              : UTC 2014-01-16 14:08:02





1 个附件 售价 大小 下载 时间

Homeward.Bound.The.Incredible.Journey.1993.1080p.WEBRip.AAC2.0.x264-TrollHD[btbtt.co].torrent 0 金币 57.76K 648 次 2月前

#1楼
发帖时间:2017-01-12 18:10:03   |   回复数:3
blue23
超凡入圣№
感谢楼主分享
2月前 #2楼
liyouchai
超凡入圣№
谢谢楼主分享资源
2月前 #3楼
911degrees
一代宗师
非常感谢,谢谢分享
2月前 #4楼
游客组