aoloffline
版主

[更 早] [欧美] [喜剧] [WEB-1080P] [BT下载]看狗在说话2 Homeward.Bound.2.1996.1080p.WEBRip.AAC2.0.x264-TrollHD 6GB

-->

◎译  名 看狗在说话之旧金山历险记

◎片  名 Homeward Bound II: Lost in San Francisco

◎年  代 1996

◎国  家 美国

◎类  别 喜剧/爱情/冒险/家庭

◎语  言 英语

◎上映日期 1996-03-08

◎IMDb评分  5.9/10 from 10,919 users

◎IMDb链接  http://www.imdb.com/title/tt0116552/

◎豆瓣评分 8.4/10 from 259 users

◎豆瓣链接 https://movie.douban.com/subject/1305531/

◎BT之家整理 http://www.btbtt.co 

◎片  长 89 分钟

◎导  演 大卫·R·艾里斯 David R. Ellis

◎主  演 迈克尔·J·福克斯 Michael J. Fox

      莎莉·菲尔德 Sally Field

      拉尔夫·韦特 Ralph Waite

      Al Michaels

      Tommy Lasorda

      鲍勃·尤克 Bob Uecker

      崔丝·麦妮利 Tress MacNeille

      乔·鲍里托 Jon Polito

      亚当·戈德堡 Adam Goldberg

      Sinbad

      卡拉·古奇诺 Carla Gugino

      提莎·坎贝尔-马丁 Tisha Campbell-Martin

      斯蒂芬·托布罗斯基 Stephen Tobolowsky

      罗斯·马林格 Ross Malinger

      Michael Bell


◎简  介


  养宠物最麻烦的是,他们是「活」的!而且跑的比你快!美国牛头犬「狗运」、喜玛拉雅猫「莎莎」及黄金猎犬老狗「幻影」老毛病又犯了!当它们的主人带它们到机场,准备到加拿大洛叽山露营时,胆小神经质的「狗运」一看到机场检疫隔离区的狗笼,以为又要逮它回野狗收容中心,吓得它拔腿就跑,「幻影」跟「莎莎」是「狗运」死中的夥伴,当然随「狗运」而去。在龙蛇混杂的旧金山大都会,两狗一猫不仅要应付耍太保的地头狗,还得躲避捕狗队的铁爪,三条小命随时都在闪黄灯!幸好狗性本善,一路上还是遇到一些好狗伴的仗义相助。「狗运」甚至还走了桃花运,交到了红粉知己。在钢筋水泥的都市丛林中「幻影」、「狗运」和「莎莎」,是否还能化险为夷,「捡」回他们的主人呢?



Video
ID                                       : 1
Format                                   : AVC
Format/Info                              : Advanced Video Codec
Format profile                           : High@L4
Format settings, CABAC                   : Yes
Format settings, ReFrames                : 4 frames
Codec ID                                 : avc1
Codec ID/Info                            : Advanced Video Coding
Duration                                 : 1h 25mn
Bit rate mode                            : Constant
Bit rate                                 : 10 000 Kbps
Width                                    : 1 920 pixels
Height                                   : 1 080 pixels
Display aspect ratio                     : 16:9
Frame rate mode                          : Constant
Frame rate                               : 25.000 fps
Standard                                 : PAL
Color space                              : YUV
Chroma subsampling                       : 4:2:0
Bit depth                                : 8 bits
Scan type                                : Progressive
Bits/(Pixel*Frame)                       : 0.193
Stream size                              : 5.94 GiB (99%)
Language                                 : English
Encoded date                             : UTC 2014-08-31 17:25:46
Tagged date                              : UTC 2014-08-31 17:25:46
Color range                              : Limited
Color primaries                          : BT.709
Transfer characteristics                 : BT.709
Matrix coefficients                      : BT.709

Audio
ID                                       : 2
Format                                   : AAC
Format/Info                              : Advanced Audio Codec
Format profile                           : LC
Codec ID                                 : 40
Duration                                 : 1h 25mn
Bit rate mode                            : Variable
Bit rate                                 : 125 Kbps
Maximum bit rate                         : 355 Kbps
Channel(s)                               : 2 channels
Channel positions                        : Front: L R
Sampling rate                            : 48.0 KHz
Frame rate                               : 46.875 fps (1024 spf)
Compression mode                         : Lossy
Stream size                              : 76.3 MiB (1%)
Language                                 : English
Encoded date                             : UTC 2014-08-31 17:25:46
Tagged date                              : UTC 2014-08-31 17:25:46





1 个附件 售价 大小 下载 时间

Homeward.Bound.2.Lost.In.San.Francisco.1996.1080p.WEBRip.AAC2.0.x264-TrollHD[btbtt.co].torrent 0 金币 60.89K 960 次 10月前

#1楼
发帖时间:2017-01-12 18:11:47   |   回复数:3
blue23
隐世仙人♂
感谢楼主分享
10月前 #2楼
liyouchai
超凡入圣№
谢谢楼主分享资源
10月前 #3楼
911degrees
一代宗师
非常感谢,谢谢分享
10月前 #4楼
游客组