小Q呆
版主

[2011] [欧美] [纪录] [BD-3D] [BT下载]穿越落基山脉 Rocky.Mountain.Express.3D.2011.1080p.BluRay.x264-PussyFoot 4.38GB

-->

◎译  名 穿越落基山脉

◎片  名 Rocky Mountain Express

◎年  代 2011

◎国  家 加拿大

◎类  别 纪录片

◎语  言 英语

◎IMDb评分  8.3/10 from 78 users

◎IMDb链接  http://www.imdb.com/title/tt2287993/

◎豆瓣评分 8.9/10 from 56 users

◎豆瓣链接 https://movie.douban.com/subject/25716076/

◎BT之家整理 http://www.btbtt.co

◎片  长 45分钟

◎导  演 Stephen Low


◎简  介


  A history of the nation's first transcontinental railway accompanies a steam-train ride through the Canadian Rockies.



Complete name : rocky.mountain.express.3d.2011.1080p.bluray.x264-pussyfoot.mkv
Format : Matroska
Format version : Version 2
File size : 4.36 GiB
Duration : 1 h 0 min
Overall bit rate : 10.3 Mb/s
Writing application : mkvmerge v6.6.0 (\'The Edge Of The In Between\') built on Dec 1 2013 17:55:00
Writing library : libebml v1.3.0 + libmatroska v1.4.1

Video
ID : 1
Format : AVC
Format/Info : Advanced Video Codec
Format profile : [email protected]
Format settings, CABAC : Yes
Format settings, ReFrames : 4 frames
Codec ID : V_MPEG4/ISO/AVC
Duration : 1 h 0 min
Bit rate : 8 835 kb/s
Width : 1 920 pixels
Height : 1 080 pixels
Display aspect ratio : 16:9
Frame rate mode : Constant
Frame rate : 23.976 FPS
Color space : YUV
Chroma subsampling : 4:2:0
Bit depth : 8 bits
Scan type : Progressive
Bits/(Pixel*Frame) : 0.178
Stream size : 3.64 GiB (83%)
Writing library : x264 core 148 r2744 b97ae06
Encoding settings : cabac=1 / ref=4 / deblock=1:-2:-2 / analyse=0x3:0x133 / me=umh / subme=8 / psy=1 / psy_rd=1.00:0.15 / mixed_ref=1 / me_range=16 / chroma_me=1 / trellis=1 / 8x8dct=1 / cqm=0 / deadzone=21,11 / fast_pskip=0 / chroma_qp_offset=-3 / threads=12 / lookahead_threads=2 / sliced_threads=0 / nr=0 / decimate=1 / interlaced=0 / bluray_compat=0 / constrained_intra=0 / bframes=3 / b_pyramid=2 / b_adapt=1 / b_bias=0 / direct=3 / weightb=1 / open_gop=0 / weightp=2 / keyint=240 / keyint_min=24 / scenecut=40 / intra_refresh=0 / rc_lookahead=50 / rc=2pass / mbtree=1 / bitrate=8835 / ratetol=1.0 / qcomp=0.60 / qpmin=0 / qpmax=69 / qpstep=4 / cplxblur=20.0 / qblur=0.5 / ip_ratio=1.40 / aq=1:1.00
Language : English
Default : Yes
Forced : No

Audio
ID : 2
Format : DTS
Format/Info : Digital Theater Systems
Mode : 16
Format settings, Endianness : Big
Codec ID : A_DTS
Duration : 1 h 0 min
Bit rate mode : Constant
Bit rate : 1 509 kb/s
Channel(s) : 6 channels
Channel positions : Front: L C R, Side: L R, LFE
Sampling rate : 48.0 kHz
Frame rate : 93.750 FPS (512 spf)
Bit depth : 24 bits
Compression mode : Lossy
Stream size : 651 MiB (15%)
Language : English
Default : Yes
Forced : No

Menu
00:00:00.000 : en:00:00:00.000
00:10:10.652 : en:00:10:10.652
00:19:27.750 : en:00:19:27.750
00:31:09.284 : en:00:31:09.284
00:40:53.034 : en:00:40:53.034
00:50:50.047 : en:00:50:50.047

Screens.png

Click Image To View Full Size

tuGaN.th.jpg
Click To View Screenshot
Click To View Screenshot
Click To View Screenshot


1 个附件 售价 大小 下载 时间

Rocky.Mountain.Express.3D.2011.1080p.BluRay.x264-PussyFoot[btbtt.co].torrent 0 金币 6.29K 7922 次 2017-1-30

#1楼
发帖时间:2017-01-30 14:51:04   |   回复数:3
liyouchai
隐世仙人♂
谢谢楼主分享资源
2017-1-30 #2楼
blue23
隐世仙人♂
感谢楼主分享
2017-1-30 #3楼
zangkeli
武林高手
感谢楼主分享!!!
2017-4-11 #4楼
游客组