aoloffline
超凡入圣№

[2011] [欧美] [动画] [BD-1080P] [BT下载]犹太狮子 The.Lion.of.Judah.2011.1080p.BluRay.x264-HD4U 4.37GB

-->

◎译  名 犹太狮子

◎片  名 The Lion of Judah

◎年  代 2011

◎国  家 美国

◎类  别 动作/动画/冒险/家庭

◎语  言 英语

◎上映日期 2009

◎IMDb评分  3.7/10 from 470 users

◎IMDb链接  http://www.imdb.com/title/tt1212022/

◎豆瓣评分 4.4/10 from 71 users

◎豆瓣链接 https://movie.douban.com/subject/3601387/

◎BT之家整理 http://www.btbtt.co 

◎片  长 87分钟

◎导  演 Deryck Broom / Roger Hawkins

◎主  演 Michael Madsen

      Scott Eastwood

      Ernest Borgnine


◎简  介


  本片要从一只名叫犹大的羔羊开始说起,洁白无斑点的身体,让他成为逾越节的最佳祭品,当犹大被村民抓走后,朋友们为了营救牠,离开舒适的马房,就此展开一场英勇却又充满欢笑的冒险旅程。马房里的动物们各有显明的角色刻划,展现不同的“人性”。

  长老中有一位对我说,不要哭。看哪,犹大支派中的狮子,大卫的根,他已得胜,能以展开那书卷,揭开那七印。

  主耶稣基督是“犹大支派中的狮子”。再来的耶稣像狮子一般, 具有巨大无比的力量, 无可抵挡的能力, 并威严可畏的权威。而这部影片除了令人想到基督之外,其中蕴含的圣经真理,也“让大人小孩在欢笑中看见上帝的爱”。


Video
ID                                       : 1
Format                                   : AVC
Format/Info                              : Advanced Video Codec
Format profile                           : [email protected]
Format settings, CABAC                   : Yes
Format settings, ReFrames                : 4 frames
Codec ID                                 : V_MPEG4/ISO/AVC
Duration                                 : 1h 27mn
Bit rate                                 : 5 665 Kbps
Width                                    : 1 920 pixels
Height                                   : 1 080 pixels
Display aspect ratio                     : 16:9
Frame rate mode                          : Constant
Frame rate                               : 23.976 fps
Color space                              : YUV
Chroma subsampling                       : 4:2:0
Bit depth                                : 8 bits
Scan type                                : Progressive
Bits/(Pixel*Frame)                       : 0.114
Stream size                              : 3.37 GiB (77%)
Writing library                          : x264 core 122 r2184 5c85e0a
Encoding settings                        : cabac=1 / ref=4 / deblock=1:0:0 / analyse=0x3:0x133 / me=umh / subme=7 / psy=1 / psy_rd=1.00:0.00 / mixed_ref=1 / me_range=16 / chroma_me=1 / trellis=1 / 8x8dct=1 / cqm=0 / deadzone=21,11 / fast_pskip=0 / chroma_qp_offset=-2 / threads=12 / sliced_threads=0 / nr=0 / decimate=1 / interlaced=0 / bluray_compat=0 / constrained_intra=0 / bframes=3 / b_pyramid=2 / b_adapt=2 / b_bias=0 / direct=3 / weightb=1 / open_gop=0 / weightp=2 / keyint=250 / keyint_min=23 / scenecut=40 / intra_refresh=0 / rc_lookahead=50 / rc=2pass / mbtree=1 / bitrate=5665 / ratetol=1.0 / qcomp=0.60 / qpmin=0 / qpmax=69 / qpstep=4 / cplxblur=20.0 / qblur=0.5 / ip_ratio=1.40 / aq=1:1.00
Language                                 : English
Default                                  : Yes
Forced                                   : No

Audio
ID                                       : 2
Format                                   : DTS
Format/Info                              : Digital Theater Systems
Mode                                     : 16
Format settings, Endianness              : Big
Codec ID                                 : A_DTS
Duration                                 : 1h 27mn
Bit rate mode                            : Constant
Bit rate                                 : 1 509 Kbps
Channel(s)                               : 6 channels
Channel positions                        : Front: L C R, Side: L R, LFE
Sampling rate                            : 48.0 KHz
Frame rate                               : 93.750 fps (512 spf)
Bit depth                                : 24 bits
Compression mode                         : Lossy
Stream size                              : 941 MiB (21%)
Language                                 : English
Default                                  : Yes
Forced                                   : No

Text
ID                                       : 3
Format                                   : UTF-8
Codec ID                                 : S_TEXT/UTF8
Codec ID/Info                            : UTF-8 Plain Text
Language                                 : English
Default                                  : No
Forced                                   : No

Menu
00:00:00.000                             : en:00:00:00.000
00:11:19.721                             : en:00:11:19.721
00:19:33.172                             : en:00:19:33.172
00:29:54.418                             : en:00:29:54.418
00:39:55.893                             : en:00:39:55.893
00:49:13.242                             : en:00:49:13.242
00:58:36.138                             : en:00:58:36.138
01:09:25.787                             : en:01:09:25.787
01:23:05.480                             : en:01:23:05.480





1 个附件 售价 大小 下载 时间

The.Lion.of.Judah.aka.Lew.Judy.2011.1080p.BluRay.x264-HD4U[btbtt.co].torrent 0 金币 88.04K 2041 次 2017-4-15

#1楼
发帖时间:2017-04-15 20:07:12   |   回复数:3
blue23
隐世仙人♂
感谢楼主分享
2017-4-15 #2楼
911degrees
隐世仙人♂
非常感谢,谢谢分享
2017-4-15 #3楼
liyouchai
隐世仙人♂
谢谢楼主分享资源
2017-4-15 #4楼
游客组