aoloffline
版主

[2011] [欧美] [惊悚] [BD-1080P] [BT下载]死亡之旅 Rites.Of.Passage.aka.The.Final.Rites.2011.1080p.BluRay.x264-PFa 7.6GB

-->

◎译  名 死亡之旅

◎片  名 Rites of Passage

◎年  代 2012

◎国  家 美国

◎类  别 惊悚

◎语  言 英语

◎上映日期 2012

◎IMDb评分  4.1/10 from 1,254 users

◎IMDb链接  http://www.imdb.com/title/tt1745958/

◎豆瓣评分 3.7/10 from 43 users

◎豆瓣链接 https://movie.douban.com/subject/6875508/

◎BT之家整理 http://www.btbtt.co

◎片  长 101分钟

◎导  演 W. Peter Iliff

◎主  演 韦斯·本特利 Wes Bentley

      凯特·马伯里 Kate Maberly

      瑞恩·唐洛胡 Ryan Donowho

      克里斯汀·史莱特 Christian Slater

      斯蒂芬·多尔夫 Stephen Dorff

      布莱恩娜·伊维根 Briana Evigan

      特拉维斯·范·文克 Travis Van Winkle

      卡莉·许洛德 Carly Schroeder

      阿什丽·欣肖 Ashley Hinshaw

      盖·布耐特 Guy Burnet

      丹尼尔·库德摩尔 Daniel Cudmore

      Angelic Zambrana

      Sharon Hinnendael

      Mercedes Leggett

      Alexi Yulish


◎简  介


  An anthropology student brings some of his classmates to his family ranch, where his brother lives in a haze of drugs, guilt, and Chumash Indian rituals.


Video
ID                                       : 1
Format                                   : AVC
Format/Info                              : Advanced Video Codec
Format profile                           : [email protected]
Format settings, CABAC                   : Yes
Format settings, ReFrames                : 4 frames
Muxing mode                              : Header stripping
Codec ID                                 : V_MPEG4/ISO/AVC
Duration                                 : 1h 41mn
Bit rate                                 : 9 249 Kbps
Width                                    : 1 920 pixels
Height                                   : 1 080 pixels
Display aspect ratio                     : 16:9
Frame rate mode                          : Constant
Frame rate                               : 23.976 (24000/1001) fps
Color space                              : YUV
Chroma subsampling                       : 4:2:0
Bit depth                                : 8 bits
Scan type                                : Progressive
Bits/(Pixel*Frame)                       : 0.186
Stream size                              : 6.42 GiB (84%)
Writing library                          : x264 core 122 r2184 5c85e0a
Encoding settings                        : cabac=1 / ref=4 / deblock=1:0:0 / analyse=0x3:0x133 / me=umh / subme=8 / psy=1 / psy_rd=1.00:0.00 / mixed_ref=1 / me_range=16 / chroma_me=1 / trellis=1 / 8x8dct=1 / cqm=0 / deadzone=21,11 / fast_pskip=0 / chroma_qp_offset=-2 / threads=12 / sliced_threads=0 / nr=0 / decimate=1 / interlaced=0 / bluray_compat=0 / constrained_intra=0 / bframes=3 / b_pyramid=2 / b_adapt=1 / b_bias=0 / direct=1 / weightb=1 / open_gop=0 / weightp=2 / keyint=250 / keyint_min=23 / scenecut=40 / intra_refresh=0 / rc_lookahead=40 / rc=2pass / mbtree=1 / bitrate=9249 / ratetol=1.0 / qcomp=0.60 / qpmin=0 / qpmax=69 / qpstep=4 / cplxblur=20.0 / qblur=0.5 / ip_ratio=1.40 / aq=1:1.00
Language                                 : English
Default                                  : Yes
Forced                                   : No

Audio
ID                                       : 2
Format                                   : DTS
Format/Info                              : Digital Theater Systems
Mode                                     : 16
Format settings, Endianness              : Big
Muxing mode                              : Header stripping
Codec ID                                 : A_DTS
Duration                                 : 1h 41mn
Bit rate mode                            : Constant
Bit rate                                 : 1 509 Kbps
Channel(s)                               : 6 channels
Channel positions                        : Front: L C R, Side: L R, LFE
Sampling rate                            : 48.0 KHz
Frame rate                               : 93.750 fps (512 spf)
Bit depth                                : 24 bits
Compression mode                         : Lossy
Stream size                              : 1.07 GiB (14%)
Default                                  : Yes
Forced                                   : No






1 个附件 售价 大小 下载 时间

Rites.Of.Passage.aka.The.Final.Rites.2011.1080p.BluRay.x264-PFa[btbtt.co].torrent 0 金币 76.97K 1573 次 2017-4-20

#1楼
发帖时间:2017-04-20 19:43:27   |   回复数:4
albb2188
武林高手
感谢楼主提供分享影片资源!
2017-4-20 #2楼
blue23
隐世仙人♂
感谢楼主分享
2017-4-20 #3楼
liyouchai
隐世仙人♂
谢谢楼主分享资源
2017-4-20 #4楼
尽评天下
无名小卒
毫无意义的片子,说是典型的美国B级暴力血腥电影,十足的烂片。
2017-4-20 #5楼
游客组