aoloffline
超凡入圣№

[2011] [欧美] [动画] [BD-3D] [BT下载]丁丁历险记[3D上下]2011.1080p.3D.BluRay.Half-OU.x264.DTS-HD.MA.5.1-FGT 17GB

-->

The.Adventures.of.Tintin.2011.1080p.3D.BluRay.Half-OU.x264.DTS-HD.MA.5.1-FGT

◎译  名 丁丁历险记/丁丁历险记:独角兽号的秘密

◎片  名 The Adventures of Tintin: The Secret of the Unicorn

◎年  代 2011

◎产  地 美国/新西兰

◎类  别 动作/动画/悬疑/冒险

◎语  言 英语

◎上映日期 2011-11-15(中国大陆)/2011-12-21(美国)

◎IMDb评分  7.4/10 from 185,348 users

◎IMDb链接  http://www.imdb.com/title/tt0983193/

◎豆瓣评分 7.6/10 from 87,865 users

◎豆瓣链接 https://movie.douban.com/subject/2028669/

◎BT之家整理 http://www.btbtt.co

◎片  长 107分钟

◎导  演 史蒂文·斯皮尔伯格 Steven Spielberg

◎主  演 杰米·贝尔 Jamie Bell

      安迪·塞基斯 Andy Serkis

      丹尼尔·克雷格 Daniel Craig

      西蒙·佩吉 Simon Pegg

      尼克·弗罗斯特 Nick Frost

      加利·艾尔维斯 Cary Elwes

      托比·琼斯 Toby Jones


◎简  介


  丁丁(杰米·贝尔 Jamie Bell 配音)和白雪的故事可以说是影响了不止一代人。在史蒂文·斯皮尔伯格和彼得·杰克逊的努力下,丁丁的故事终于被搬上了大银幕。这一次,丁丁因为一艘古老的船模,而开始了一次惊险的历险。这艘名为独角兽号的模型船,隐藏着一个海盗和财宝的故事。为了解开这个流传了几个世纪的秘密,丁丁和白雪一起不断寻找线索,找寻真相。在航海家阿道克船长(安迪·瑟金斯 Andy Serkis 饰)、笨手笨脚的侦探搭档杜庞(西蒙·佩吉 Simon Pegg 配音)与杜邦(尼克·弗罗斯特 Nick Frost 配音)以及白雪的帮助下,丁丁游历了半个地球,与恶棍萨卡林(丹尼尔·克雷格 Daniel Craig 配音)斗智斗勇。最终,丁丁终于找到了独角兽号隐藏的秘密,以及那一则古老的诅咒……

  在第84届奥斯卡金像奖中,丁丁历险记获得了最佳配乐的提名。


◎获奖情况


  第84届奥斯卡金像奖  (2012)

  最佳原创配乐(提名) 约翰·威廉姆斯


  第69届金球奖  (2012)

  电影类 最佳动画长片


  第39届动画安妮奖  (2012)

  最佳动画长片(提名)

  最佳编剧(提名) 史蒂文·莫法特 / 埃德加·赖特 / 乔·考尼什

  最佳配乐 约翰·威廉姆斯

  最佳剪辑(提名) 迈克尔·卡恩

  最佳动画效果


  第17届美国评论家选择电影奖  (2012)

  最佳动画片(提名)


  第10届华盛顿影评人协会奖  (2011)

  最佳动画片(提名)


  第24届芝加哥影评人协会奖  (2011)

  最佳动画片(提名)


  第11届凤凰城影评人协会奖  (2011)

  最佳动画片(提名)


  第20届东南影评人协会奖  (2011)

  最佳动画片(提名)


  第2届豆瓣电影鑫像奖  (2012)

  鑫豆单元 最佳导演(外语)(提名) 史蒂文·斯皮尔伯格



Video

ID                                       : 1

Format                                   : AVC

Format/Info                              : Advanced Video Codec

Format profile                           : [email protected]

Format settings, CABAC                   : Yes

Format settings, ReFrames                : 2 frames

Codec ID                                 : V_MPEG4/ISO/AVC

Duration                                 : 1 h 46 min

Nominal bit rate                         : 16.0 Mb/s

Width                                    : 1 920 pixels

Height                                   : 1 080 pixels

Display aspect ratio                     : 16:9

Frame rate mode                          : Constant

Frame rate                               : 23.976 (24000/1001) FPS

Color space                              : YUV

Chroma subsampling                       : 4:2:0

Bit depth                                : 8 bits

Scan type                                : Progressive

Bits/(Pixel*Frame)                       : 0.322

Title                                    : The.Adventures.of.Tintin.2011.1080p.3D.BluRay.Half-OU.x264.DTS-HD.MA.5.1-FGT

Writing library                          : x264 core 142

Encoding settings                        : cabac=1 / ref=1 / deblock=1:-1:-1 / analyse=0x3:0 / me=hex / subme=5 / psy=0 / mixed_ref=0 / me_range=16 / chroma_me=1 / trellis=0 / 8x8dct=1 / cqm=0 / deadzone=21,11 / fast_pskip=0 / chroma_qp_offset=0 / threads=8 / lookahead_threads=2 / sliced_threads=0 / nr=0 / decimate=1 / interlaced=0 / bluray_compat=0 / constrained_intra=0 / bframes=2 / b_pyramid=0 / b_adapt=1 / b_bias=0 / direct=1 / weightb=0 / open_gop=0 / weightp=0 / keyint=24 / keyint_min=13 / scenecut=40 / intra_refresh=0 / rc=2pass / mbtree=0 / bitrate=16000 / ratetol=1.0 / qcomp=0.60 / qpmin=0 / qpmax=69 / qpstep=4 / cplxblur=20.0 / qblur=0.5 / ip_ratio=1.40 / pb_ratio=1.30 / aq=1:1.00

Default                                  : Yes

Forced                                   : No

Color range                              : Limited

Color primaries                          : BT.709

Transfer characteristics                 : BT.709

Matrix coefficients                      : BT.709


Audio #1

ID                                       : 2

Format                                   : DTS

Format/Info                              : Digital Theater Systems

Format profile                           : MA / Core

Mode                                     : 16

Format settings, Endianness              : Big

Codec ID                                 : A_DTS

Duration                                 : 1 h 46 min

Bit rate mode                            : Variable / Constant

Bit rate                                 : Unknown / 1 509 kb/s

Channel(s)                               : 6 channels

Channel positions                        : Front: L C R, Side: L R, LFE

Sampling rate                            : 48.0 kHz

Frame rate                               : 93.750 FPS (512 spf)

Bit depth                                : 16 bits

Compression mode                         : Lossless / Lossy

Title                                    : The.Adventures.of.Tintin.2011.1080p.3D.BluRay.Half-OU.x264.DTS-HD.MA.5.1-FGT

Language                                 : English

Default                                  : Yes

Forced                                   : No


Audio #2

ID                                       : 3

Format                                   : AC-3

Format/Info                              : Audio Coding 3

Format settings, Endianness              : Big

Codec ID                                 : A_AC3

Duration                                 : 1 h 46 min

Bit rate mode                            : Constant

Bit rate                                 : 640 kb/s

Channel(s)                               : 6 channels

Channel positions                        : Front: L C R, Side: L R, LFE

Sampling rate                            : 48.0 kHz

Frame rate                               : 31.250 FPS (1536 spf)

Bit depth                                : 16 bits

Compression mode                         : Lossy

Stream size                              : 489 MiB (3%)

Title                                    : The.Adventures.of.Tintin.2011.1080p.3D.BluRay.Half-OU.x264.DTS-HD.MA.5.1-FGT

Language                                 : Arabic

Service kind                             : Complete Main

Default                                  : No

Forced                                   : No


Audio #3

ID                                       : 4

Format                                   : AC-3

Format/Info                              : Audio Coding 3

Format settings, Endianness              : Big

Codec ID                                 : A_AC3

Duration                                 : 1 h 46 min

Bit rate mode                            : Constant

Bit rate                                 : 640 kb/s

Channel(s)                               : 6 channels

Channel positions                        : Front: L C R, Side: L R, LFE

Sampling rate                            : 48.0 kHz

Frame rate                               : 31.250 FPS (1536 spf)

Bit depth                                : 16 bits

Compression mode                         : Lossy

Stream size                              : 489 MiB (3%)

Title                                    : The.Adventures.of.Tintin.2011.1080p.3D.BluRay.Half-OU.x264.DTS-HD.MA.5.1-FGT

Language                                 : Estonian

Service kind                             : Complete Main

Default                                  : No

Forced                                   : No


Audio #4

ID                                       : 5

Format                                   : AC-3

Format/Info                              : Audio Coding 3

Format settings, Endianness              : Big

Codec ID                                 : A_AC3

Duration                                 : 1 h 46 min

Bit rate mode                            : Constant

Bit rate                                 : 640 kb/s

Channel(s)                               : 6 channels

Channel positions                        : Front: L C R, Side: L R, LFE

Sampling rate                            : 48.0 kHz

Frame rate                               : 31.250 FPS (1536 spf)

Bit depth                                : 16 bits

Compression mode                         : Lossy

Stream size                              : 489 MiB (3%)

Title                                    : The.Adventures.of.Tintin.2011.1080p.3D.BluRay.Half-OU.x264.DTS-HD.MA.5.1-FGT

Language                                 : Hebrew

Service kind                             : Complete Main

Default                                  : No

Forced                                   : No


Audio #5

ID                                       : 6

Format                                   : AC-3

Format/Info                              : Audio Coding 3

Format settings, Endianness              : Big

Codec ID                                 : A_AC3

Duration                                 : 1 h 46 min

Bit rate mode                            : Constant

Bit rate                                 : 640 kb/s

Channel(s)                               : 6 channels

Channel positions                        : Front: L C R, Side: L R, LFE

Sampling rate                            : 48.0 kHz

Frame rate                               : 31.250 FPS (1536 spf)

Bit depth                                : 16 bits

Compression mode                         : Lossy

Stream size                              : 489 MiB (3%)

Title                                    : The.Adventures.of.Tintin.2011.1080p.3D.BluRay.Half-OU.x264.DTS-HD.MA.5.1-FGT

Language                                 : Latvian

Service kind                             : Complete Main

Default                                  : No

Forced                                   : No


Audio #6

ID                                       : 7

Format                                   : AC-3

Format/Info                              : Audio Coding 3

Format settings, Endianness              : Big

Codec ID                                 : A_AC3

Duration                                 : 1 h 46 min

Bit rate mode                            : Constant

Bit rate                                 : 640 kb/s

Channel(s)                               : 6 channels

Channel positions                        : Front: L C R, Side: L R, LFE

Sampling rate                            : 48.0 kHz

Frame rate                               : 31.250 FPS (1536 spf)

Bit depth                                : 16 bits

Compression mode                         : Lossy

Stream size                              : 489 MiB (3%)

Title                                    : The.Adventures.of.Tintin.2011.1080p.3D.BluRay.Half-OU.x264.DTS-HD.MA.5.1-FGT

Language                                 : Lithuanian

Service kind                             : Complete Main

Default                                  : No

Forced                                   : No


Audio #7

ID                                       : 8

Format                                   : AC-3

Format/Info                              : Audio Coding 3

Format settings, Endianness              : Big

Codec ID                                 : A_AC3

Duration                                 : 1 h 46 min

Bit rate mode                            : Constant

Bit rate                                 : 640 kb/s

Channel(s)                               : 6 channels

Channel positions                        : Front: L C R, Side: L R, LFE

Sampling rate                            : 48.0 kHz

Frame rate                               : 31.250 FPS (1536 spf)

Bit depth                                : 16 bits

Compression mode                         : Lossy

Stream size                              : 489 MiB (3%)

Title                                    : The.Adventures.of.Tintin.2011.1080p.3D.BluRay.Half-OU.x264.DTS-HD.MA.5.1-FGT

Language                                 : Russian

Service kind                             : Complete Main

Default                                  : No

Forced                                   : No


Audio #8

ID                                       : 9

Format                                   : AC-3

Format/Info                              : Audio Coding 3

Format settings, Endianness              : Big

Codec ID                                 : A_AC3

Duration                                 : 1 h 46 min

Bit rate mode                            : Constant

Bit rate                                 : 640 kb/s

Channel(s)                               : 6 channels

Channel positions                        : Front: L C R, Side: L R, LFE

Sampling rate                            : 48.0 kHz

Frame rate                               : 31.250 FPS (1536 spf)

Bit depth                                : 16 bits

Compression mode                         : Lossy

Stream size                              : 489 MiB (3%)

Title                                    : The.Adventures.of.Tintin.2011.1080p.3D.BluRay.Half-OU.x264.DTS-HD.MA.5.1-FGT

Language                                 : Turkish

Service kind                             : Complete Main

Default                                  : No

Forced                                   : No


Audio #9

ID                                       : 10

Format                                   : AC-3

Format/Info                              : Audio Coding 3

Format settings, Endianness              : Big

Codec ID                                 : A_AC3

Duration                                 : 1 h 46 min

Bit rate mode                            : Constant

Bit rate                                 : 640 kb/s

Channel(s)                               : 6 channels

Channel positions                        : Front: L C R, Side: L R, LFE

Sampling rate                            : 48.0 kHz

Frame rate                               : 31.250 FPS (1536 spf)

Bit depth                                : 16 bits

Compression mode                         : Lossy

Stream size                              : 489 MiB (3%)

Title                                    : The.Adventures.of.Tintin.2011.1080p.3D.BluRay.Half-OU.x264.DTS-HD.MA.5.1-FGT

Language                                 : Ukrainian

Service kind                             : Complete Main

Default                                  : No

Forced                                   : No


Text #1

ID                                       : 11

Format                                   : PGS

Muxing mode                              : zlib

Codec ID                                 : S_HDMV/PGS

Codec ID/Info                            : Picture based subtitle format used on BDs/HD-DVDs

Title                                    : English-PGS

Language                                 : English

Default                                  : Yes

Forced                                   : No


Text #2

ID                                       : 12

Format                                   : PGS

Muxing mode                              : zlib

Codec ID                                 : S_HDMV/PGS

Codec ID/Info                            : Picture based subtitle format used on BDs/HD-DVDs

Title                                    : Arabic-PGS

Language                                 : Arabic

Default                                  : No

Forced                                   : No


Text #3

ID                                       : 13

Format                                   : PGS

Muxing mode                              : zlib

Codec ID                                 : S_HDMV/PGS

Codec ID/Info                            : Picture based subtitle format used on BDs/HD-DVDs

Title                                    : Estonian-PGS

Language                                 : Estonian

Default                                  : No

Forced                                   : No


Text #4

ID                                       : 14

Format                                   : PGS

Muxing mode                              : zlib

Codec ID                                 : S_HDMV/PGS

Codec ID/Info                            : Picture based subtitle format used on BDs/HD-DVDs

Title                                    : Hebrew-PGS

Language                                 : Hebrew

Default                                  : No

Forced                                   : No


Text #5

ID                                       : 15

Format                                   : PGS

Muxing mode                              : zlib

Codec ID                                 : S_HDMV/PGS

Codec ID/Info                            : Picture based subtitle format used on BDs/HD-DVDs

Title                                    : Latvian-PGS

Language                                 : Latvian

Default                                  : No

Forced                                   : No


Text #6

ID                                       : 16

Format                                   : PGS

Muxing mode                              : zlib

Codec ID                                 : S_HDMV/PGS

Codec ID/Info                            : Picture based subtitle format used on BDs/HD-DVDs

Title                                    : Lithuanian-PGS

Language                                 : Lithuanian

Default                                  : No

Forced                                   : No


Text #7

ID                                       : 17

Format                                   : PGS

Muxing mode                              : zlib

Codec ID                                 : S_HDMV/PGS

Codec ID/Info                            : Picture based subtitle format used on BDs/HD-DVDs

Title                                    : Russian-PGS

Language                                 : Russian

Default                                  : No

Forced                                   : No


Text #8

ID                                       : 18

Format                                   : PGS

Muxing mode                              : zlib

Codec ID                                 : S_HDMV/PGS

Codec ID/Info                            : Picture based subtitle format used on BDs/HD-DVDs

Title                                    : Turkish-PGS

Language                                 : Turkish

Default                                  : No

Forced                                   : No


Text #9

ID                                       : 19

Format                                   : PGS

Muxing mode                              : zlib

Codec ID                                 : S_HDMV/PGS

Codec ID/Info                            : Picture based subtitle format used on BDs/HD-DVDs

Title                                    : Ukrainian-PGS

Language                                 : Ukrainian

Default                                  : No

Forced                                   : No


Menu

00:00:00.000                             : en01)00:00:00:000

00:05:39.297                             : en02)00:05:39:297

00:12:12.314                             : en03)00:12:12:314

00:17:11.363                             : en04)00:17:11:363

00:25:36.868                             : en05)00:25:36:868

00:32:37.580                             : en06)00:32:37:580

00:37:55.314                             : en07)00:37:55:314

00:42:29.838                             : en000:42:29:838

00:50:52.507                             : en09)00:50:52:507

00:56:27.217                             : en10)00:56:27:217

01:02:19.610                             : en11)01:02:19:610

01:11:58.981                             : en12)01:11:58:981

01:20:03.965                             : en13)01:20:03:965

01:27:30.995                             : en14)01:27:30:995

01:34:12.813                             : en15)01:34:12:813

01:40:30.482                             : en16)01:40:30:482





1 个附件 售价 大小 下载 时间

The.Adventures.of.Tintin.2011.1080p.3D.BluRay.Half-OU.x264.DTS-HD.MA.5.1-FGT[btbtt.co].torrent 0 金币 88.45K 1586 次 2017-6-17

#1楼
发帖时间:2017-06-17 18:38:09   |   回复数:3
911degrees
隐世仙人♂
非常感谢,谢谢分享
2017-6-17 #2楼
liyouchai
隐世仙人♂
谢谢楼主分享资源
2017-6-17 #3楼
blue23
隐世仙人♂
感谢楼主分享
2017-6-18 #4楼
游客组