aoloffline
版主

[2017] [欧美] [爱情] [HDTV/HDrip] [BT下载]完美接球 The.Perfect.Catch.2017.1080p.HDTV.x264-W4F 4.89GB

-->



◎译  名 完美接球

◎片  名 The Perfect Catch

◎年  代 2017

◎产  地 美国

◎类  别 剧情/爱情/家庭

◎上映日期 2017-04-22(美国)

◎IMDb评分  6.7/10 from 337 users

◎IMDb链接  http://www.imdb.com/title/tt6782486/

◎BT之家整理 http://www.btbtt.pw 

◎片  长 93分钟

◎导  演 史蒂文·R·蒙若尔 Steven R. Monroe

◎主  演 妮基·迪洛许 Nikki Deloach

      安德鲁·W·沃克 Andrew W. Walker

      Chance Hurstfield


◎简  介


  勉强支撑着家族小餐厅生意的单亲妈妈Jessica在家乡与高中初恋男友、如今遭遇职业生涯低潮的棒球明星Chase重逢。Jessica的餐厅能扭转乾坤吗?她能和Chase旧情复燃吗?



Video
ID                                       : 1
Format                                   : AVC
Format/Info                              : Advanced Video Codec
Format profile                           : [email protected]
Format settings, CABAC                   : Yes
Format settings, ReFrames                : 4 frames
Codec ID                                 : V_MPEG4/ISO/AVC
Duration                                 : 1h 23mn
Bit rate                                 : 7 963 Kbps
Width                                    : 1 916 pixels
Height                                   : 1 080 pixels
Display aspect ratio                     : 16:9
Frame rate mode                          : Constant
Frame rate                               : 23.976 (24000/1001) fps
Color space                              : YUV
Chroma subsampling                       : 4:2:0
Bit depth                                : 8 bits
Scan type                                : Progressive
Bits/(Pixel*Frame)                       : 0.160
Stream size                              : 4.67 GiB (95%)
Writing library                          : x264 core 148 r2762 90a61ec
Encoding settings                        : cabac=1 / ref=4 / deblock=1:0:0 / analyse=0x3:0x113 / me=hex / subme=8 / psy=1 / psy_rd=1.00:0.00 / mixed_ref=1 / me_range=16 / chroma_me=1 / trellis=2 / 8x8dct=1 / cqm=0 / deadzone=21,11 / fast_pskip=1 / chroma_qp_offset=-2 / threads=12 / lookahead_threads=2 / sliced_threads=0 / nr=0 / decimate=1 / interlaced=0 / bluray_compat=0 / constrained_intra=0 / bframes=3 / b_pyramid=2 / b_adapt=1 / b_bias=0 / direct=3 / weightb=1 / open_gop=0 / weightp=2 / keyint=250 / keyint_min=23 / scenecut=40 / intra_refresh=0 / rc_lookahead=50 / rc=crf / mbtree=1 / crf=17.0 / qcomp=0.60 / qpmin=0 / qpmax=69 / qpstep=4 / ip_ratio=1.40 / aq=1:1.00
Default                                  : Yes
Forced                                   : No

Audio
ID                                       : 2
Format                                   : AC-3
Format/Info                              : Audio Coding 3
Mode extension                           : CM (complete main)
Format settings, Endianness              : Big
Codec ID                                 : A_AC3
Duration                                 : 1h 23mn
Bit rate mode                            : Constant
Bit rate                                 : 384 Kbps
Channel(s)                               : 6 channels
Channel positions                        : Front: L C R, Side: L R, LFE
Sampling rate                            : 48.0 KHz
Frame rate                               : 31.250 fps (1536 spf)
Compression mode                         : Lossy
Stream size                              : 231 MiB (5%)
Language                                 : English
Default                                  : Yes
Forced                                   : No

Text
ID                                       : 3
Format                                   : UTF-8
Codec ID                                 : S_TEXT/UTF8
Codec ID/Info                            : UTF-8 Plain Text
Duration                                 : 1h 22mn
Bit rate                                 : 116 bps
Count of elements                        : 1979
Stream size                              : 70.7 KiB (0%)
Language                                 : English
Default                                  : No
Forced                                   : No



1 个附件 售价 大小 下载 时间

The.Perfect.Catch.2017.1080p.HDTV.x264-W4F[btbtt.me].torrent 0 金币 196.30K 658 次 10天前

#1楼
发帖时间:2017-07-17 18:07:47   |   回复数:3
911degrees
一代宗师
非常感谢,谢谢分享
10天前 #2楼
liyouchai
超凡入圣№
谢谢楼主分享资源
10天前 #3楼
blue23
超凡入圣№
感谢楼主分享
6天前 #4楼
游客组