aoloffline
版主

[2013] [欧美] [喜剧] [HDTV/HDrip] [BT下载]生活中美好的一面 The.Sweeter.Side.Of.Life.2013.1080p.HDTV.x264-W4F 5.6GB

-->

◎译  名 生活中美好的一面

◎片  名 The Sweeter Side of Life

◎年  代 2013

◎产  地 美国

◎类  别 喜剧

◎语  言 英语

◎IMDb评分  5.7/10 from 658 users

◎IMDb链接  http://www.imdb.com/title/tt1278027/

◎BT之家整理 http://www.btbtt.pw 

◎导  演 迈克尔·达米安 Michael Damian

◎主  演 凯瑟琳·莫里斯 Kathryn Morris

      詹姆斯·贝斯特 James Best

      阿拉斯塔尔·麦肯泽 Alastair Mackenzie

      Steve Varnom

      山姆·道格拉斯 Sam Douglas

      斯蒂芬·霍根 Stephen Hogan

      珍·玛奇 Jane March

      Christine Oram

      Jerome Holder

      Geoffrey Burton

      Nigel Barber

      丹尼·摩根 Danny Morgan

      Simon Thorp

      Daisy Ashford

      Tim Wallers


◎简  介


  A big-city housewife is dumped by her sleazy husband, and she finds herself having to adjust to small town life in her father's bakery.



Video
ID                                       : 1
Format                                   : AVC
Format/Info                              : Advanced Video Codec
Format profile                           : [email protected]
Format settings, CABAC                   : Yes
Format settings, ReFrames                : 4 frames
Codec ID                                 : V_MPEG4/ISO/AVC
Duration                                 : 1h 20mn
Bit rate                                 : 9 568 Kbps
Width                                    : 1 916 pixels
Height                                   : 1 080 pixels
Display aspect ratio                     : 16:9
Frame rate mode                          : Constant
Frame rate                               : 23.976 (24000/1001) fps
Color space                              : YUV
Chroma subsampling                       : 4:2:0
Bit depth                                : 8 bits
Scan type                                : Progressive
Bits/(Pixel*Frame)                       : 0.193
Stream size                              : 5.38 GiB (96%)
Writing library                          : x264 core 148 r2762 90a61ec
Encoding settings                        : cabac=1 / ref=4 / deblock=1:0:0 / analyse=0x3:0x113 / me=hex / subme=8 / psy=1 / psy_rd=1.00:0.00 / mixed_ref=1 / me_range=16 / chroma_me=1 / trellis=2 / 8x8dct=1 / cqm=0 / deadzone=21,11 / fast_pskip=1 / chroma_qp_offset=-2 / threads=12 / lookahead_threads=2 / sliced_threads=0 / nr=0 / decimate=1 / interlaced=0 / bluray_compat=0 / constrained_intra=0 / bframes=3 / b_pyramid=2 / b_adapt=1 / b_bias=0 / direct=3 / weightb=1 / open_gop=0 / weightp=2 / keyint=250 / keyint_min=23 / scenecut=40 / intra_refresh=0 / rc_lookahead=50 / rc=crf / mbtree=1 / crf=17.0 / qcomp=0.60 / qpmin=0 / qpmax=69 / qpstep=4 / ip_ratio=1.40 / aq=1:1.00
Default                                  : Yes
Forced                                   : No

Audio
ID                                       : 2
Format                                   : AC-3
Format/Info                              : Audio Coding 3
Mode extension                           : CM (complete main)
Format settings, Endianness              : Big
Codec ID                                 : A_AC3
Duration                                 : 1h 20mn
Bit rate mode                            : Constant
Bit rate                                 : 384 Kbps
Channel(s)                               : 6 channels
Channel positions                        : Front: L C R, Side: L R, LFE
Sampling rate                            : 48.0 KHz
Frame rate                               : 31.250 fps (1536 spf)
Compression mode                         : Lossy
Stream size                              : 221 MiB (4%)
Language                                 : English
Default                                  : Yes
Forced                                   : No

Text
ID                                       : 3
Format                                   : UTF-8
Codec ID                                 : S_TEXT/UTF8
Codec ID/Info                            : UTF-8 Plain Text
Duration                                 : 1h 20mn
Bit rate                                 : 97 bps
Count of elements                        : 1465
Stream size                              : 57.3 KiB (0%)
Language                                 : English
Default                                  : No
Forced                                   : No


1 个附件 售价 大小 下载 时间

The.Sweeter.Side.Of.Life.2013.1080p.HDTV.x264-W4F[btbtt.me].torrent 0 金币 112.53K 484 次 2月前

#1楼
发帖时间:2017-07-17 18:11:33   |   回复数:3
911degrees
一代宗师
非常感谢,谢谢分享
2月前 #2楼
liyouchai
超凡入圣№
谢谢楼主分享资源
2月前 #3楼
blue23
超凡入圣№
感谢楼主分享
2月前 #4楼
游客组