aoloffline
版主

[2016] [欧美] [喜剧] [WEB-1080P] [BT下载]请投马汀一票 El.Candidato.2016.1080p.WEBRip.x264-STRiFE 3.86GB

-->

El.Candidato.2016.1080p.WEBRip.x264-STRiFE

◎译  名 The Candidate(美)/请投马汀一票(台)

◎片  名 El Candidato

◎年  代 2016

◎产  地 乌拉圭 Uruguay/阿根廷 Argentina

◎类  别 喜剧

◎语  言 西班牙语

◎IMDb评分  6.2/10 from 50 users

◎IMDb链接  http://www.imdb.com/title/tt5070076/

◎BT之家整理 http://www.btbtt.pw 

◎片  长 80分钟

◎导  演 Daniel Hendler


◎简  介


  在这座乡村宅邸中,一名想当上总统的有钱商人接受竞选团队的精心修饰,企图打造出中产阶级选民认同的形象。


Video
ID                                       : 1
Format                                   : AVC
Format/Info                              : Advanced Video Codec
Format profile                           : [email protected]
Format settings, CABAC                   : Yes
Format settings, ReFrames                : 4 frames
Codec ID                                 : V_MPEG4/ISO/AVC
Duration                                 : 1h 23mn
Bit rate                                 : 6 221 Kbps
Width                                    : 1 920 pixels
Height                                   : 1 080 pixels
Display aspect ratio                     : 16:9
Frame rate mode                          : Constant
Frame rate                               : 24.000 fps
Color space                              : YUV
Chroma subsampling                       : 4:2:0
Bit depth                                : 8 bits
Scan type                                : Progressive
Bits/(Pixel*Frame)                       : 0.125
Stream size                              : 3.64 GiB (94%)
Writing library                          : x264 core 152 r2851 ba24899
Encoding settings                        : cabac=1 / ref=4 / deblock=1:-3:-3 / analyse=0x3:0x113 / me=umh / subme=8 / psy=1 / psy_rd=1.00:0.15 / mixed_ref=1 / me_range=16 / chroma_me=1 / trellis=2 / 8x8dct=1 / cqm=0 / deadzone=21,11 / fast_pskip=0 / chroma_qp_offset=-2 / threads=12 / lookahead_threads=2 / sliced_threads=0 / nr=0 / decimate=1 / interlaced=0 / bluray_compat=0 / constrained_intra=0 / bframes=3 / b_pyramid=2 / b_adapt=1 / b_bias=0 / direct=3 / weightb=1 / open_gop=0 / weightp=2 / keyint=240 / keyint_min=24 / scenecut=40 / intra_refresh=0 / rc_lookahead=50 / rc=crf / mbtree=1 / crf=17.0 / qcomp=0.60 / qpmin=0 / qpmax=69 / qpstep=4 / ip_ratio=1.40 / aq=3:0.80
Language                                 : English
Default                                  : Yes
Forced                                   : No

Audio
ID                                       : 2
Format                                   : AC-3
Format/Info                              : Audio Coding 3
Mode extension                           : CM (complete main)
Format settings, Endianness              : Big
Codec ID                                 : A_AC3
Duration                                 : 1h 23mn
Bit rate mode                            : Constant
Bit rate                                 : 384 Kbps
Channel(s)                               : 6 channels
Channel positions                        : Front: L C R, Side: L R, LFE
Sampling rate                            : 48.0 KHz
Frame rate                               : 31.250 fps (1536 spf)
Compression mode                         : Lossy
Stream size                              : 230 MiB (6%)
Language                                 : Spanish
Default                                  : Yes
Forced                                   : No

Text #1
ID                                       : 3
Format                                   : UTF-8
Codec ID                                 : S_TEXT/UTF8
Codec ID/Info                            : UTF-8 Plain Text
Duration                                 : 1h 20mn
Bit rate                                 : 54 bps
Count of elements                        : 1103
Stream size                              : 32.1 KiB (0%)
Language                                 : English
Default                                  : Yes
Forced                                   : Yes

Text #2
ID                                       : 4
Format                                   : UTF-8
Codec ID                                 : S_TEXT/UTF8
Codec ID/Info                            : UTF-8 Plain Text
Duration                                 : 1h 23mn
Bit rate                                 : 58 bps
Count of elements                        : 1334
Stream size                              : 35.8 KiB (0%)
Language                                 : German
Default                                  : No
Forced                                   : No

Text #3
ID                                       : 5
Format                                   : UTF-8
Codec ID                                 : S_TEXT/UTF8
Codec ID/Info                            : UTF-8 Plain Text
Duration                                 : 1h 23mn
Bit rate                                 : 54 bps
Count of elements                        : 1342
Stream size                              : 33.4 KiB (0%)
Language                                 : Italian
Default                                  : No
Forced                                   : No

Text #4
ID                                       : 6
Format                                   : UTF-8
Codec ID                                 : S_TEXT/UTF8
Codec ID/Info                            : UTF-8 Plain Text
Duration                                 : 1h 20mn
Bit rate                                 : 58 bps
Count of elements                        : 979
Stream size                              : 34.4 KiB (0%)
Language                                 : Portuguese
Default                                  : No
Forced                                   : No

Text #5
ID                                       : 7
Format                                   : UTF-8
Codec ID                                 : S_TEXT/UTF8
Codec ID/Info                            : UTF-8 Plain Text
Duration                                 : 1h 20mn
Bit rate                                 : 67 bps
Count of elements                        : 1227
Stream size                              : 39.6 KiB (0%)
Language                                 : Spanish
Default                                  : No
Forced                                   : No



1 个附件 售价 大小 下载 时间

El.Candidato.2016.1080p.WEBRip.x264-STRiFE[btbtt.me].torrent 0 金币 155.10K 399 次 10天前

#1楼
发帖时间:2017-07-17 18:39:02   |   回复数:3
911degrees
一代宗师
非常感谢,谢谢分享
10天前 #2楼
liyouchai
超凡入圣№
谢谢楼主分享资源
10天前 #3楼
blue23
超凡入圣№
感谢楼主分享
6天前 #4楼
游客组