aoloffline
版主

[2011] [欧美] [爱情] [BD-1080P] [BT下载]倾国之恋/温莎公爵的情人 W.E.2011.LIMITED.1080p.BluRay.x264-SPARKS 7.9GB

-->

W.E.2011.LIMITED.1080p.BluRay.x264-SPARKS

◎译  名 倾国之恋/温莎公爵的情人(台)/温莎伉俪(港)/温莎公爵夫人/沃利斯与爱德华/WE之恋

◎片  名 W.E.

◎年  代 2011

◎产  地 英国

◎类  别 剧情/爱情/历史

◎语  言 英语/法语/俄语

◎上映日期 2012-01-20(英国)

◎IMDb评分  6.2/10 from 10,446 users

◎IMDb链接  http://www.imdb.com/title/tt1536048/

◎豆瓣评分 7.8/10 from 16,681 users

◎豆瓣链接 https://movie.douban.com/subject/4117302/

◎BT之家整理 http://www.btbtt.me/

◎片  长 119分钟

◎导  演 麦当娜 Madonna

◎主  演 艾比·考尼什 Abbie Cornish

      詹姆斯·达西 James D'Arcy

      安德丽亚·瑞斯波罗格 Andrea Riseborough

      理查德·柯伊尔 Richard Coyle

      奥斯卡·伊撒克 Oscar Isaac

      詹姆斯·福克斯 James Fox

      娜塔莉·多默尔 Natalie Dormer

      劳伦斯·福克斯 Laurence Fox


◎简  介


  故事取材自辛普生夫人沃利斯生平事迹,是麦当娜继2008年《下流与智慧》之后执导的第二部影片,制片成本几乎都是她一个人自掏腰包,影片的总投入达到了3600万美元。

  影片采取双线结构的,一条讲述英王爱德华八世(詹姆斯·达西 James D'Arcy 饰)和美国女人沃丽丝·辛 普森(安德丽亚·瑞斯波罗格 Andrea Riseborough 饰)之间的传奇罗曼史。“不爱江山爱美人”爱德华以爱情为名却让沃丽丝一生背负了所有的骂名。另一条线是1998年,纽约女子沃丽·维特若普(艾比·考尼什 Abbie Cornish 饰)在面对丈夫冷暴力的同时,着迷于沃丽丝和爱德华的爱情故事。她收集一切关于沃丽丝的资料,一遍又一遍地参观沃丽丝遗物拍卖会的展览。而在多次参观展览馆后邂逅了那里的保安(奥斯卡·伊撒克 Oscar Isaac 饰),让她找到了许久不见的热情。


◎获奖情况


  第84届奥斯卡金像奖  (2012)

  最佳服装设计(提名) 艾丽安·飞利浦


  第69届金球奖  (2012)

  电影类 最佳原创配乐(提名) 阿贝尔·科热尼奥夫斯基

  电影类 最佳原创歌曲 麦当娜



Video
ID                                       : 1
Format                                   : AVC
Format/Info                              : Advanced Video Codec
Format profile                           : [email protected]
Format settings, CABAC                   : Yes
Format settings, ReFrames                : 5 frames
Codec ID                                 : V_MPEG4/ISO/AVC
Duration                                 : 1 h 58 min
Bit rate                                 : 8 056 kb/s
Width                                    : 1 920 pixels
Height                                   : 800 pixels
Display aspect ratio                     : 2.40:1
Frame rate mode                          : Constant
Frame rate                               : 23.976 FPS
Color space                              : YUV
Chroma subsampling                       : 4:2:0
Bit depth                                : 8 bits
Scan type                                : Progressive
Bits/(Pixel*Frame)                       : 0.219
Stream size                              : 6.53 GiB (82%)
Writing library                          : x264 core 122 r2184 5c85e0a
Encoding settings                        : cabac=1 / ref=5 / deblock=1:0:0 / analyse=0x3:0x133 / me=umh / subme=7 / psy=1 / psy_rd=1.00:0.00 / mixed_ref=1 / me_range=16 / chroma_me=1 / trellis=1 / 8x8dct=1 / cqm=0 / deadzone=21,11 / fast_pskip=0 / chroma_qp_offset=-2 / threads=12 / sliced_threads=0 / nr=0 / decimate=1 / interlaced=0 / bluray_compat=0 / constrained_intra=0 / bframes=3 / b_pyramid=2 / b_adapt=2 / b_bias=0 / direct=3 / weightb=1 / open_gop=0 / weightp=2 / keyint=250 / keyint_min=23 / scenecut=40 / intra_refresh=0 / rc_lookahead=50 / rc=2pass / mbtree=1 / bitrate=8056 / ratetol=1.0 / qcomp=0.60 / qpmin=0 / qpmax=69 / qpstep=4 / cplxblur=20.0 / qblur=0.5 / ip_ratio=1.40 / aq=1:1.00
Language                                 : English
Default                                  : Yes
Forced                                   : No

Audio
ID                                       : 2
Format                                   : DTS
Format/Info                              : Digital Theater Systems
Mode                                     : 16
Format settings, Endianness              : Big
Codec ID                                 : A_DTS
Duration                                 : 1 h 58 min
Bit rate mode                            : Constant
Bit rate                                 : 1 509 kb/s
Channel(s)                               : 6 channels
Channel positions                        : Front: L C R, Side: L R, LFE
Sampling rate                            : 48.0 kHz
Frame rate                               : 93.750 FPS (512 spf)
Bit depth                                : 24 bits
Compression mode                         : Lossy
Stream size                              : 1.25 GiB (16%)
Language                                 : English
Default                                  : Yes
Forced                                   : No

Text
ID                                       : 3
Format                                   : UTF-8
Codec ID                                 : S_TEXT/UTF8
Codec ID/Info                            : UTF-8 Plain Text
Language                                 : English
Default                                  : No
Forced                                   : No

Menu
00:00:00.000                             : en:00:00:00.000
00:04:10.041                             : en:00:04:10.041
00:07:31.618                             : en:00:07:31.618
00:13:36.315                             : en:00:13:36.315
00:20:27.351                             : en:00:20:27.351
00:27:49.751                             : en:00:27:49.751
00:34:34.364                             : en:00:34:34.364
00:42:07.358                             : en:00:42:07.358
00:49:47.151                             : en:00:49:47.151
00:55:22.819                             : en:00:55:22.819
01:01:25.515                             : en:01:01:25.515
01:04:54.808                             : en:01:04:54.808
01:13:50.760                             : en:01:13:50.760
01:22:21.770                             : en:01:22:21.770
01:30:13.658                             : en:01:30:13.658
01:35:14.876                             : en:01:35:14.876
01:42:34.940                             : en:01:42:34.940
01:47:54.301                             : en:01:47:54.301
01:50:23.909                             : en:01:50:23.909
01:53:15.372                             : en:01:53:15.372





2 个附件 售价 大小 下载 时间

W.E.2011.LIMITED.1080p.BluRay.x264-SPARKS[btbtt.me].torrent 0 金币 79.96K 2461 次 2017-9-11

W.E.2011.LIMITED.1080p.BluRay.x264-SPARKS[btbtt.me].torrent 0 金币 79.96K 210 次 2018-3-15

#1楼
发帖时间:2017-09-11 12:16:52   |   回复数:4
911degrees
隐世仙人♂
非常感谢,谢谢分享
2017-9-11 #2楼
blue23
隐世仙人♂
感谢楼主分享
2017-9-11 #3楼
liyouchai
隐世仙人♂
谢谢楼主分享资源
2017-9-11 #4楼
tanchoohoon
武林盟主
谢谢楼主分享
2017-9-11 #5楼
游客组