aoloffline
版主

[2011] [欧美] [爱情] [BD-1080P] [BT下载]布利斯的爱情 The.Trouble.with.the.Truth.2011.1080p.AMZN.WEBRip.DDP2.0.x264-monke

-->

The.Trouble.with.the.Truth.2011.1080p.AMZN.WEBRip.DDP2.0.x264-monkee

◎译  名 布利斯的爱情

◎片  名 The Trouble with Bliss

◎年  代 2011

◎产  地 美国

◎类  别 喜剧/剧情

◎语  言 英语

◎上映日期 2012-03-23(美国)

◎IMDb评分  5.4/10 from 2,160 users

◎IMDb链接  http://www.imdb.com/title/tt1483756/

◎豆瓣评分 5.5/10 from 924 users

◎豆瓣链接 https://movie.douban.com/subject/3898739/

◎BT之家整理 http://www.btbtt.me/

◎片  长 97分钟

◎导  演 Michael Knowles

◎主  演 迈克尔·C·豪尔 Michael C. Hall

      布丽·拉尔森 Brie Larson

      刘玉玲 Lucy Liu


◎简  介


  影片的男主角布利斯是个35岁的一事无成的男子,没想到一天他发现自己爱上了自己高中同学的18岁的女儿。


Video
ID                                       : 1
Format                                   : AVC
Format/Info                              : Advanced Video Codec
Format profile                           : [email protected]
Format settings, CABAC                   : Yes
Format settings, ReFrames                : 4 frames
Codec ID                                 : V_MPEG4/ISO/AVC
Duration                                 : 1 h 36 min
Bit rate mode                            : Variable
Bit rate                                 : 5 734 kb/s
Maximum bit rate                         : 15.0 Mb/s
Width                                    : 1 920 pixels
Height                                   : 1 080 pixels
Display aspect ratio                     : 16:9
Frame rate mode                          : Constant
Frame rate                               : 23.976 (24000/1001) FPS
Color space                              : YUV
Chroma subsampling                       : 4:2:0
Bit depth                                : 8 bits
Scan type                                : Progressive
Bits/(Pixel*Frame)                       : 0.115
Stream size                              : 3.85 GiB (96%)
Writing library                          : x264 core 148 r2623 d5b2374
Encoding settings                        : cabac=1 / ref=4 / deblock=1:-1:-1 / analyse=0x3:0x133 / me=umh / subme=9 / psy=1 / psy_rd=1.00:0.15 / mixed_ref=1 / me_range=24 / chroma_me=1 / trellis=2 / 8x8dct=1 / cqm=0 / deadzone=21,11 / fast_pskip=1 / chroma_qp_offset=-3 / threads=34 / lookahead_threads=5 / sliced_threads=0 / nr=150 / decimate=1 / interlaced=0 / bluray_compat=0 / constrained_intra=0 / bframes=8 / b_pyramid=2 / b_adapt=2 / b_bias=0 / direct=3 / weightb=1 / open_gop=0 / weightp=2 / keyint=120 / keyint_min=61 / scenecut=0 / intra_refresh=0 / rc_lookahead=120 / rc=crf / mbtree=1 / crf=18.0 / qcomp=0.60 / qpmin=0 / qpmax=69 / qpstep=4 / vbv_maxrate=15000 / vbv_bufsize=31250 / crf_max=0.0 / nal_hrd=vbr / filler=0 / ip_ratio=1.40 / aq=3:1.00
Default                                  : Yes
Forced                                   : No
Color range                              : Limited
Color primaries                          : BT.709
Transfer characteristics                 : BT.709
Matrix coefficients                      : BT.709

Audio
ID                                       : 2
Format                                   : E-AC-3
Format/Info                              : Enhanced Audio Coding 3
Format settings, Endianness              : Big
Codec ID                                 : A_EAC3
Duration                                 : 1 h 36 min
Bit rate mode                            : Constant
Bit rate                                 : 224 kb/s
Channel(s)                               : 2 channels
Channel positions                        : Front: L R
Sampling rate                            : 48.0 kHz
Frame rate                               : 187.500 FPS (256 spf)
Compression mode                         : Lossy
Stream size                              : 154 MiB (4%)
Language                                 : English
Service kind                             : Complete Main
Default                                  : Yes
Forced                                   : No

Text
ID                                       : 3
Format                                   : UTF-8
Codec ID                                 : S_TEXT/UTF8
Codec ID/Info                            : UTF-8 Plain Text
Duration                                 : 1 h 31 min
Bit rate                                 : 106 b/s
Count of elements                        : 2169
Stream size                              : 71.8 KiB (0%)
Language                                 : English
Default                                  : No
Forced                                   : No




1 个附件 售价 大小 下载 时间

The.Trouble.with.the.Truth.2011.1080p.AMZN.WEBRip.DDP2.0.x264-monkee[btbtt.me].torrent 0 金币 80.56K 2002 次 2017-9-29

#1楼
发帖时间:2017-09-29 00:36:55   |   回复数:4
jokingcheung
一代宗师
谢谢分享
2017-9-29 #2楼
911degrees
隐世仙人♂
非常感谢,谢谢分享
2017-9-29 #3楼
liyouchai
隐世仙人♂
谢谢楼主分享资源
2017-9-29 #4楼
blue23
隐世仙人♂
感谢楼主分享
2017-10-1 #5楼
游客组