nationly
武林高手

[2017] [欧美] [科幻] [BD-720P] [BT下载]安娜贝尔2:诞生.Annabelle.2.Creation.2017.720p.BluRay.x264-SPARKS 4.37G

-->

◎译  名 安娜贝尔2:诞生/安娜贝尔:造孽(台)/诡娃安娜贝尔:造孽(港)/安娜贝尔2:创造物

◎片  名 Annabelle: Creation

◎年  代 2017

◎产  地 美国

◎类  别 悬疑/惊悚/恐怖

◎语  言 英语

◎上映日期 2017-08-11(美国)

◎IMDb评分  6.9/10 from 29,594 users

◎IMDb链接  http://www.imdb.com/title/tt5140878/

◎豆瓣评分 6.8/10 from 1,847 users

◎豆瓣链接 https://movie.douban.com/subject/26644205/

◎BT之家整理 http://www.btbtt.me/

◎片  长 109分钟

◎导  演 大卫·F·桑德伯格 David F. Sandberg

◎主  演 斯黛芬妮·西格曼 Stephanie Sigman

      特丽莎·贝特曼 Talitha Bateman

      露露·威尔逊 Lulu Wilson

      米兰达·奥图 Miranda Otto

      安东尼·拉帕格利亚 Anthony LaPaglia

      艾丽西娅·维拉-贝利 Alicia Vela-Bailey

      格蕾丝·富尔顿 Grace Fulton

      萨马拉·李 Samara Lee

      菲利帕·库特哈德 Philippa Coulthard

      约瑟夫·比沙拉 Joseph Bishara

      凯莉·奥马利 Kerry O'Malley

      布莱恩·豪威  Brian Howe

      亚当·巴特利 Adam Bartley

      洛塔·洛森 Lotta Losten

      布拉德·格林奎斯特 Brad Greenquist

      泰勒·巴克 Tayler Buck

      马克·布拉姆霍尔 Mark Bramhall

      利亚姆·詹姆斯·拉莫斯 Liam James Ramos

      卢·卢·萨夫兰 Lou Lou Safran

      泰勒·A·约翰逊 Tyler A. Johnson

      卡拉莱·奥斯汀 Karalee Austin


◎简  介


  由约翰·R·莱昂耐迪执导,安娜贝拉·沃丽丝、阿尔法·沃德主演的低成本恐怖片《安娜贝尔》,去年在美国上映后反响不错。如今有消息称,新线电影公司打算开拍续集,剧本仍由原片编剧Gary Dauberman撰写,将延续原作的风格和特色。

  《安娜贝尔》是温子仁恐怖系列《招魂》的外传电影,在恐怖元素的基础上,增加了更多暴力和血腥的内容。影片的故事讲述了一对新婚夫妇的恐怖经历,在妻子怀孕后,丈夫带回了妻子寻觅已久的娃娃安娜贝尔,从此接二连三的厄运也朝着这对夫妇袭来……作为一部衍生电影,如今能获拍续集发展为系列片,可见其故事大有发展空间。

  目前,《安娜贝尔》续集只确定了编剧的回归,原片导演、主演等主创暂无回归的消息传出


Video

ID                                       : 1

Format                                   : AVC

Format/Info                              : Advanced Video Codec

Format profile                           : High@L4.1

Format settings, CABAC                   : Yes

Format settings, ReFrames                : 5 frames

Codec ID                                 : V_MPEG4/ISO/AVC

Duration                                 : 1h 49mn

Bit rate                                 : 5 062 Kbps

Width                                    : 1 280 pixels

Height                                   : 536 pixels

Display aspect ratio                     : 2.40:1

Frame rate mode                          : Constant

Frame rate                               : 23.976 fps

Color space                              : YUV

Chroma subsampling                       : 4:2:0

Bit depth                                : 8 bits

Scan type                                : Progressive

Bits/(Pixel*Frame)                       : 0.308

Stream size                              : 3.88 GiB (89%)

Writing library                          : x264 core 152 r2851 ba24899

Encoding settings                        : cabac=1 / ref=5 / deblock=1:0:0 / analyse=0x3:0x133 / me=umh / subme=7 / psy=1 / psy_rd=1.00:0.00 / mixed_ref=1 / me_range=16 / chroma_me=1 / trellis=1 / 8x8dct=1 / cqm=0 / deadzone=21,11 / fast_pskip=0 / chroma_qp_offset=-2 / threads=17 / lookahead_threads=2 / sliced_threads=0 / nr=0 / decimate=1 / interlaced=0 / bluray_compat=0 / constrained_intra=0 / bframes=3 / b_pyramid=2 / b_adapt=1 / b_bias=0 / direct=1 / weightb=1 / open_gop=0 / weightp=2 / keyint=250 / keyint_min=23 / scenecut=40 / intra_refresh=0 / rc_lookahead=40 / rc=2pass / mbtree=1 / bitrate=5062 / ratetol=1.0 / qcomp=0.60 / qpmin=0 / qpmax=69 / qpstep=4 / cplxblur=20.0 / qblur=0.5 / ip_ratio=1.40 / aq=1:1.00

Language                                 : English

Default                                  : Yes

Forced                                   : No


Audio

ID                                       : 2

Format                                   : AC-3

Format/Info                              : Audio Coding 3

Mode extension                           : CM (complete main)

Format settings, Endianness              : Big

Codec ID                                 : A_AC3

Duration                                 : 1h 49mn

Bit rate mode                            : Constant

Bit rate                                 : 640 Kbps

Channel(s)                               : 6 channels

Channel positions                        : Front: L C R, Side: L R, LFE

Sampling rate                            : 48.0 KHz

Frame rate                               : 31.250 fps (1536 spf)

Compression mode                         : Lossy

Stream size                              : 502 MiB (11%)

Language                                 : English

Default                                  : Yes

Forced                                   : No




1 个附件 售价 大小 下载 时间

Annabelle.2.Creation.2017.720p.BluRay.x264-SPARKS.torrent 0 金币 175.50K 4715 次 2月前

#1楼
发帖时间:2017-10-12 12:25:15   |   回复数:7
911degrees
超凡入圣№
非常感谢,谢谢分享
2月前 #2楼
xw_hylz
武林高手
感谢分享!
2月前 #3楼
hljwsq
一派掌门


谢谢分享

2月前 #4楼
liyouchai
超凡入圣№
谢谢楼主分享资源
2月前 #5楼
jokingcheung
一代宗师
谢谢分享
2月前 #6楼
blue23
隐世仙人♂
感谢楼主分享
1月前 #7楼
ff8590
武林高手
感谢楼主分享
1月前 #8楼
游客组