aoloffline
版主

[2017] [欧美] [动画] [Remux] [BT下载]蝙蝠侠大战双面人 2017.1080p.BluRay.REMUX.AVC.DTS-HD.MA.5.1-FGT 11GB

-->

Batman.vs.Two.Faces.2017.1080p.BluRay.REMUX.AVC.DTS-HD.MA.5.1-FGT

◎译  名 蝙蝠侠大战双面人

◎片  名 Batman Vs. Two-Face

◎年  代 2017

◎产  地 美国

◎类  别 动画

◎语  言 英语

◎上映日期 2017-10-17(美国)

◎IMDb评分  6.4/10 from 144 users

◎IMDb链接  http://www.imdb.com/title/tt6142314/

◎BT之家整理 http://www.btbtt.me/

◎片  长 72分钟

◎导  演 里克·莫拉莱斯 Rick Morales

◎主  演 波特·瓦德 Burt Ward

      亚当·威斯特 Adam West

      威廉·夏特纳 William Shatner

      朱莉·纽玛 Julie Newmar

      琳恩·玛丽·斯图尔特 Lynne Marie Stewart

      托马斯·列农 Thomas Lennon

      吉姆·瓦德 Jim Ward

      斯蒂文·韦伯 Steven Weber


◎简  介


  Former Gotham City District Attorney Harvey Dent, one side of his face scarred by acid, goes on a crime spree based on the number '2'. All of his actions are decided by the flip of a defaced, two-headed silver dollar.


Video
ID                                       : 1
Format                                   : AVC
Format/Info                              : Advanced Video Codec
Format profile                           : High@L4.1
Format settings, CABAC                   : Yes
Format settings, ReFrames                : 4 frames
Codec ID                                 : V_MPEG4/ISO/AVC
Duration                                 : 1 h 12 min
Bit rate mode                            : Variable
Maximum bit rate                         : 30.0 Mb/s
Width                                    : 1 920 pixels
Height                                   : 1 080 pixels
Display aspect ratio                     : 16:9
Frame rate mode                          : Constant
Frame rate                               : 23.976 (24000/1001) FPS
Color space                              : YUV
Chroma subsampling                       : 4:2:0
Bit depth                                : 8 bits
Scan type                                : Progressive
Title                                    : Batman.vs.Two.Faces.2017.1080p.BluRay.REMUX.AVC.DTS-HD.MA.5.1-FGT
Language                                 : English
Default                                  : No
Forced                                   : No

Audio #1
ID                                       : 2
Format                                   : DTS
Format/Info                              : Digital Theater Systems
Format profile                           : MA / Core
Mode                                     : 16
Format settings, Endianness              : Big
Codec ID                                 : A_DTS
Duration                                 : 1 h 12 min
Bit rate mode                            : Variable / Constant
Bit rate                                 : Unknown / 1 509 kb/s
Channel(s)                               : 6 channels
Channel positions                        : Front: L C R, Side: L R, LFE
Sampling rate                            : 48.0 kHz
Frame rate                               : 93.750 FPS (512 spf)
Bit depth                                : 24 bits
Compression mode                         : Lossless / Lossy
Title                                    : Batman.vs.Two.Faces.2017.1080p.BluRay.REMUX.AVC.DTS-HD.MA.5.1-FGT
Language                                 : English
Default                                  : Yes
Forced                                   : No

Audio #2
ID                                       : 3
Format                                   : DTS
Format/Info                              : Digital Theater Systems
Mode                                     : 16
Format settings, Endianness              : Big
Codec ID                                 : A_DTS
Duration                                 : 1 h 12 min
Bit rate mode                            : Constant
Bit rate                                 : 1 509 kb/s
Channel(s)                               : 6 channels
Channel positions                        : Front: L C R, Side: L R, LFE
Sampling rate                            : 48.0 kHz
Frame rate                               : 93.750 FPS (512 spf)
Bit depth                                : 24 bits
Compression mode                         : Lossy
Stream size                              : 779 MiB (7%)
Title                                    : Batman.vs.Two.Faces.2017.1080p.BluRay.REMUX.AVC.DTS-HD.MA.5.1-FGT
Language                                 : English
Default                                  : No
Forced                                   : No

Audio #3
ID                                       : 4
Format                                   : AC-3
Format/Info                              : Audio Coding 3
Format settings, Endianness              : Big
Codec ID                                 : A_AC3
Duration                                 : 1 h 12 min
Bit rate mode                            : Constant
Bit rate                                 : 640 kb/s
Channel(s)                               : 6 channels
Channel positions                        : Front: L C R, Side: L R, LFE
Sampling rate                            : 48.0 kHz
Frame rate                               : 31.250 FPS (1536 spf)
Bit depth                                : 16 bits
Compression mode                         : Lossy
Stream size                              : 330 MiB (3%)
Title                                    : Batman.vs.Two.Faces.2017.1080p.BluRay.REMUX.AVC.DTS-HD.MA.5.1-FGT
Language                                 : French
Service kind                             : Complete Main
Default                                  : No
Forced                                   : No

Audio #4
ID                                       : 5
Format                                   : AC-3
Format/Info                              : Audio Coding 3
Format settings, Endianness              : Big
Codec ID                                 : A_AC3
Duration                                 : 1 h 12 min
Bit rate mode                            : Constant
Bit rate                                 : 640 kb/s
Channel(s)                               : 6 channels
Channel positions                        : Front: L C R, Side: L R, LFE
Sampling rate                            : 48.0 kHz
Frame rate                               : 31.250 FPS (1536 spf)
Bit depth                                : 16 bits
Compression mode                         : Lossy
Stream size                              : 330 MiB (3%)
Title                                    : Batman.vs.Two.Faces.2017.1080p.BluRay.REMUX.AVC.DTS-HD.MA.5.1-FGT
Language                                 : Spanish
Service kind                             : Complete Main
Default                                  : No
Forced                                   : No

Text #1
ID                                       : 6
Format                                   : PGS
Muxing mode                              : zlib
Codec ID                                 : S_HDMV/PGS
Codec ID/Info                            : Picture based subtitle format used on BDs/HD-DVDs
Title                                    : English-PGS
Language                                 : English
Default                                  : Yes
Forced                                   : No

Text #2
ID                                       : 7
Format                                   : PGS
Muxing mode                              : zlib
Codec ID                                 : S_HDMV/PGS
Codec ID/Info                            : Picture based subtitle format used on BDs/HD-DVDs
Title                                    : French-PGS
Language                                 : French
Default                                  : No
Forced                                   : No

Text #3
ID                                       : 8
Format                                   : PGS
Muxing mode                              : zlib
Codec ID                                 : S_HDMV/PGS
Codec ID/Info                            : Picture based subtitle format used on BDs/HD-DVDs
Title                                    : Spanish-PGS
Language                                 : Spanish
Default                                  : No
Forced                                   : No

Menu
00:00:00.000                             : en:Chapter 01
00:09:46.127                             : en:Chapter 02
00:19:06.562                             : en:Chapter 03
00:29:05.368                             : en:Chapter 04
00:40:06.570                             : en:Chapter 05
00:47:21.463                             : en:Chapter 06
00:59:11.297                             : en:Chapter 07
01:08:41.534                             : en:Chapter 08




1 个附件 售价 大小 下载 时间

Batman.vs.Two.Faces.2017.1080p.BluRay.REMUX.AVC.DTS-HD.MA.5.1-FGT[btbtt.me].torrent 0 金币 58.71K 1043 次 5天前

#1楼
发帖时间:2017-10-12 18:17:53   |   回复数:7
s3364500
一代宗师
感谢分享~~~~
5天前 #2楼
911degrees
一代宗师
非常感谢,谢谢分享
5天前 #3楼
liyouchai
超凡入圣№
谢谢楼主分享资源
5天前 #4楼
jokingcheung
一代宗师
谢谢分享
5天前 #5楼
buzhihuo8007
小有名气
感谢分享资源
4天前 #6楼
kola13
武林高手
感谢分享
4天前 #7楼
blue23
超凡入圣№
感谢楼主分享
3天前 #8楼
游客组