aoloffline
版主

[2017] [欧美] [科幻] [BD-2160P] [BT下载]异星觉醒 Life.2017.2160p.BluRay.x265.10bit.SDR.DTS-HD.MA.TrueHD.7.1-SWT 47GB

-->

Life.2017.2160p.BluRay.x265.10bit.SDR.DTS-HD.MA.TrueHD.7.1.Atmos-SWTYBLZ

◎译  名 异星觉醒/外星生命(港)/异星智慧(台)/生命

◎片  名 Life

◎年  代 2017

◎产  地 美国

◎类  别 科幻/惊悚/恐怖

◎语  言 英语/日语/越南语

◎上映日期 2017-03-18(西南偏南电影节)/2017-03-24(美国)/2017-05-19(中国大陆)

◎IMDb评分  6.6/10 from 125,498 users

◎IMDb链接  http://www.imdb.com/title/tt5442430/

◎豆瓣评分 6.5/10 from 84,861 users

◎豆瓣链接 https://movie.douban.com/subject/26718838/

◎BT之家整理 http://www.btbtt.me/

◎片  长 104分钟

◎导  演 丹尼尔·伊斯皮诺萨 Daniel Espinosa

◎主  演 杰克·吉伦哈尔 Jake Gyllenhaal

      丽贝卡·弗格森 Rebecca Ferguson

      瑞恩·雷诺兹 Ryan Reynolds

      真田广之 Hiroyuki Sanada

      阿利安·巴克瑞 Ariyon Bakare

      奥尔加·戴维克娜雅 Olga Dihovichnaya

      大卫·梅尔 David Muir

      伊莉莎白·巴尔加斯 Elizabeth Vargas

      卡米尔·沃伦-泰勒 Camiel Warren-Taylor

      森尚子 Naoko Mori

      亚历山大·阮 Alexandre Nguyen

      希·伍辛 Hiu Woong-Sin


◎简  介


  大卫(杰克·吉伦哈尔 Jake Gyllenhaal 饰)、米兰达(丽贝卡·弗格森 Rebecca Ferguson 饰)、罗里(瑞安·雷诺兹 Ryan Reynolds 饰)、秀(真田广之 饰)和休(阿利安·巴克瑞 Ariyon Bakare 饰)是在同一艘太空船上工作的宇航员们。一次偶然之中,他们在火星上发现了一个尚未成熟的生命体。休将这个生命体带回了实验室,让大家没有想到的是,这个小小的细胞在外界的刺激之下竟然开始了飞速的成长。

  随着生命体的长大,事态的发展开始失去了控制,该生命体展现出了强大的攻击力和高超的智力,先后杀死了数名船员。不仅如此,大卫发现生命体似乎想随着飞船一起降落地球,而一旦它的阴谋得逞,地球上的人类势必将要面临灭顶之灾。


Video

ID                                       : 1

Format                                   : HEVC

Format/Info                              : High Efficiency Video Coding

Format profile                           : Main 10@L5.1@High

Codec ID                                 : V_MPEGH/ISO/HEVC

Duration                                 : 1 h 43 min

Bit rate                                 : 54.2 Mb/s

Width                                    : 3 840 pixels

Height                                   : 1 608 pixels

Display aspect ratio                     : 2.40:1

Frame rate mode                          : Constant

Frame rate                               : 23.976 (24000/1001) FPS

Color space                              : YUV

Chroma subsampling                       : 4:2:0

Bit depth                                : 10 bits

Bits/(Pixel*Frame)                       : 0.366

Stream size                              : 39.4 GiB (83%)

Title                                    : Life.2017.2160p.BluRay.x265.10bit.SDR.DTS-HD.MA.TrueHD.7.1.Atmos-SWTYBLZ

Writing library                          : x265 2.5b4a5bcfe29c7:[Windows][GCC 4.9.3][64 bit] 10bit

Encoding settings                        : cpuid=1173503 / frame-threads=16 / numa-pools=24,24,24,24 / wpp / no-pmode / no-pme / no-psnr / no-ssim / log-level=2 / input-csp=1 / input-res=3840x1608 / interlace=0 / total-frames=0 / level-idc=51 / high-tier=1 / uhd-bd=0 / ref=3 / no-allow-non-conformance / repeat-headers / annexb / aud / hrd / info / hash=0 / no-temporal-layers / no-open-gop / min-keyint=1 / keyint=24 / bframes=4 / b-adapt=2 / b-pyramid / bframe-bias=0 / rc-lookahead=25 / lookahead-slices=4 / scenecut=40 / no-intra-refresh / ctu=64 / min-cu-size=8 / no-rect / no-amp / max-tu-size=32 / tu-inter-depth=1 / tu-intra-depth=1 / limit-tu=0 / rdoq-level=0 / dynamic-rd=0.00 / no-ssim-rd / signhide / no-tskip / nr-intra=0 / nr-inter=0 / no-constrained-intra / strong-intra-smoothing / max-merge=2 / limit-refs=3 / no-limit-modes / me=1 / subme=2 / merange=57 / temporal-mvp / weightp / no-weightb / no-analyze-src-pics / deblock=0:0 / no-sao / no-sao-non-deblock / rd=3 / no-early-skip / rskip / no-fast-intra / no-tskip-fast / no-cu-lossless / no-b-intra / rdpenalty=0 / psy-rd=2.00 / psy-rdoq=0.00 / no-rd-refine / analysis-reuse-mode=0 / no-lossless / cbqpoffs=0 / crqpoffs=0 / rc=crf / crf=16.0 / qcomp=0.60 / qpstep=4 / stats-write=0 / stats-read=0 / vbv-maxrate=160000 / vbv-bufsize=160000 / vbv-init=0.9 / crf-max=0.0 / crf-min=0.0 / ipratio=1.40 / pbratio=1.30 / aq-mode=1 / aq-strength=1.00 / cutree / zone-count=0 / no-strict-cbr / qg-size=32 / no-rc-grain / qpmax=69 / qpmin=0 / no-const-vbv / sar=1 / overscan=0 / videoformat=5 / range=0 / colorprim=2 / transfer=2 / colormatrix=2 / chromaloc=0 / display-window=0 / max-cll=0,0 / min-luma=0 / max-luma=1023 / log2-max-poc-lsb=8 / vui-timing-info / vui-hrd-info / slices=1 / opt-qp-pps / opt-ref-list-length-pps / no-multi-pass-opt-rps / scenecut-bias=0.05 / no-opt-cu-delta-qp / no-aq-motion / no-hdr / no-hdr-opt / no-dhdr10-opt / analysis-reuse-level=5 / scale-factor=0 / refine-intra=0 / refine-inter=0 / refine-mv=0 / no-limit-sao / ctu-info=0

Language                                 : English

Default                                  : Yes

Forced                                   : No


Audio #1

ID                                       : 2

Format                                   : DTS

Format/Info                              : Digital Theater Systems

Format profile                           : MA / Core

Mode                                     : 16

Format settings, Endianness              : Big

Codec ID                                 : A_DTS

Duration                                 : 1 h 43 min

Bit rate mode                            : Variable / Constant

Bit rate                                 : 4 283 kb/s / 1 509 kb/s

Channel(s)                               : 8 channels / 6 channels

Channel positions                        : Front: L C R, Side: L R, Back: L R, LFE / Front: L C R, Side: L R, LFE

Sampling rate                            : 48.0 kHz

Frame rate                               : 93.750 FPS (512 spf)

Bit depth                                : 24 bits

Compression mode                         : Lossless / Lossy

Stream size                              : 3.11 GiB (7%)

Title                                    : Life.2017.2160p.BluRay.x265.10bit.SDR.DTS-HD.MA.TrueHD.7.1.Atmos-SWTYBLZ

Language                                 : English

Default                                  : No

Forced                                   : No


Audio #2

ID                                       : 3

Format                                   : TrueHD

Format profile                           : TrueHD+Atmos / TrueHD

Codec ID                                 : A_TRUEHD

Duration                                 : 1 h 43 min

Bit rate mode                            : Variable

Bit rate                                 : 5 264 kb/s

Maximum bit rate                         : 8 139 kb/s

Channel(s)                               : Object Based / 8 channels

Channel positions                        : Object Based / Front: L C R, Side: L R, Back: L R, LFE

Sampling rate                            :  / 48.0 kHz

Frame rate                               : 1 200.000 FPS (40 spf)

Compression mode                         : Lossless

Delay relative to video                  : 8 ms

Stream size                              : 3.82 GiB (8%)

Title                                    : Life.2017.2160p.BluRay.x265.10bit.SDR.DTS-HD.MA.TrueHD.7.1.Atmos-SWTYBLZ

Language                                 : English

Default                                  : Yes

Forced                                   : No


Audio #3

ID                                       : 4

Format                                   : AC-3

Format/Info                              : Audio Coding 3

Format settings, Endianness              : Big

Codec ID                                 : A_AC3

Duration                                 : 1 h 43 min

Bit rate mode                            : Constant

Bit rate                                 : 640 kb/s

Channel(s)                               : 6 channels

Channel positions                        : Front: L C R, Side: L R, LFE

Sampling rate                            : 48.0 kHz

Frame rate                               : 31.250 FPS (1536 spf)

Bit depth                                : 16 bits

Compression mode                         : Lossy

Delay relative to video                  : 8 ms

Stream size                              : 476 MiB (1%)

Title                                    : Life.2017.2160p.BluRay.x265.10bit.SDR.DTS-HD.MA.TrueHD.7.1.Atmos-SWTYBLZ

Language                                 : English

Service kind                             : Complete Main

Default                                  : No

Forced                                   : No


Text #1

ID                                       : 5

Format                                   : UTF-8

Codec ID                                 : S_TEXT/UTF8

Codec ID/Info                            : UTF-8 Plain Text

Duration                                 : 1 h 32 min

Bit rate                                 : 51 b/s

Count of elements                        : 1132

Stream size                              : 34.8 KiB (0%)

Title                                    : English-SRT

Language                                 : English

Default                                  : Yes

Forced                                   : No


Text #2

ID                                       : 6

Format                                   : UTF-8

Codec ID                                 : S_TEXT/UTF8

Codec ID/Info                            : UTF-8 Plain Text

Duration                                 : 1 h 35 min

Bit rate                                 : 60 b/s

Count of elements                        : 1437

Stream size                              : 42.3 KiB (0%)

Title                                    : English-SDH-SRT

Language                                 : English

Default                                  : No

Forced                                   : No


Text #3

ID                                       : 7

Format                                   : PGS

Muxing mode                              : zlib

Codec ID                                 : S_HDMV/PGS

Codec ID/Info                            : Picture based subtitle format used on BDs/HD-DVDs

Duration                                 : 49 min 18 s

Bit rate                                 : 612 b/s

Count of elements                        : 30

Stream size                              : 221 KiB (0%)

Title                                    : American-English-FORCED-PGS

Language                                 : English

Default                                  : No

Forced                                   : No


Text #4

ID                                       : 8

Format                                   : PGS

Muxing mode                              : zlib

Codec ID                                 : S_HDMV/PGS

Codec ID/Info                            : Picture based subtitle format used on BDs/HD-DVDs

Duration                                 : 1 h 31 min

Bit rate                                 : 36.4 kb/s

Count of elements                        : 2210

Stream size                              : 23.7 MiB (0%)

Title                                    : American-English-PGS

Language                                 : English

Default                                  : No

Forced                                   : No


Text #5

ID                                       : 9

Format                                   : PGS

Muxing mode                              : zlib

Codec ID                                 : S_HDMV/PGS

Codec ID/Info                            : Picture based subtitle format used on BDs/HD-DVDs

Duration                                 : 1 h 35 min

Bit rate                                 : 46.2 kb/s

Count of elements                        : 2875

Stream size                              : 31.5 MiB (0%)

Title                                    : American-English-SDH-PGS

Language                                 : English

Default                                  : No

Forced                                   : No


Text #6

ID                                       : 10

Format                                   : PGS

Muxing mode                              : zlib

Codec ID                                 : S_HDMV/PGS

Codec ID/Info                            : Picture based subtitle format used on BDs/HD-DVDs

Duration                                 : 1 h 35 min

Bit rate                                 : 46.3 kb/s

Count of elements                        : 2876

Stream size                              : 31.5 MiB (0%)

Title                                    : British.English-SDH-PGS

Language                                 : English

Default                                  : No

Forced                                   : No


Text #7

ID                                       : 11

Format                                   : PGS

Muxing mode                              : zlib

Codec ID                                 : S_HDMV/PGS

Codec ID/Info                            : Picture based subtitle format used on BDs/HD-DVDs

Duration                                 : 1 h 41 min

Bit rate                                 : 14.7 kb/s

Count of elements                        : 1944

Stream size                              : 10.6 MiB (0%)

Title                                    : Arabic-PGS

Language                                 : Arabic

Default                                  : No

Forced                                   : No


Text #8

ID                                       : 12

Format                                   : PGS

Muxing mode                              : zlib

Codec ID                                 : S_HDMV/PGS

Codec ID/Info                            : Picture based subtitle format used on BDs/HD-DVDs

Duration                                 : 1 h 41 min

Bit rate                                 : 23.8 kb/s

Count of elements                        : 1971

Stream size                              : 17.2 MiB (0%)

Title                                    : Chinese-PGS

Language                                 : Chinese

Default                                  : No

Forced                                   : No


Text #9

ID                                       : 13

Format                                   : PGS

Muxing mode                              : zlib

Codec ID                                 : S_HDMV/PGS

Codec ID/Info                            : Picture based subtitle format used on BDs/HD-DVDs

Duration                                 : 1 h 41 min

Bit rate                                 : 22.6 kb/s

Count of elements                        : 1947

Stream size                              : 16.3 MiB (0%)

Title                                    : Chinese-PGS

Language                                 : Chinese

Default                                  : No

Forced                                   : No


Text #10

ID                                       : 14

Format                                   : PGS

Muxing mode                              : zlib

Codec ID                                 : S_HDMV/PGS

Codec ID/Info                            : Picture based subtitle format used on BDs/HD-DVDs

Duration                                 : 1 h 41 min

Bit rate                                 : 26.8 kb/s

Count of elements                        : 1940

Stream size                              : 19.4 MiB (0%)

Title                                    : Croatian-PGS

Language                                 : Croatian

Default                                  : No

Forced                                   : No


Text #11

ID                                       : 15

Format                                   : PGS

Muxing mode                              : zlib

Codec ID                                 : S_HDMV/PGS

Codec ID/Info                            : Picture based subtitle format used on BDs/HD-DVDs

Duration                                 : 1 h 41 min

Bit rate                                 : 30.2 kb/s

Count of elements                        : 2012

Stream size                              : 21.8 MiB (0%)

Title                                    : Czech-PGS

Language                                 : Czech

Default                                  : No

Forced                                   : No


Text #12

ID                                       : 16

Format                                   : PGS

Muxing mode                              : zlib

Codec ID                                 : S_HDMV/PGS

Codec ID/Info                            : Picture based subtitle format used on BDs/HD-DVDs

Duration                                 : 1 h 41 min

Bit rate                                 : 28.9 kb/s

Count of elements                        : 1492

Stream size                              : 20.9 MiB (0%)

Title                                    : Danish-PGS

Language                                 : Danish

Default                                  : No

Forced                                   : No


Text #13

ID                                       : 17

Format                                   : PGS

Muxing mode                              : zlib

Codec ID                                 : S_HDMV/PGS

Codec ID/Info                            : Picture based subtitle format used on BDs/HD-DVDs

Duration                                 : 1 h 41 min

Bit rate                                 : 27.4 kb/s

Count of elements                        : 1648

Stream size                              : 19.8 MiB (0%)

Title                                    : Dutch-PGS

Language                                 : Dutch

Default                                  : No

Forced                                   : No


Text #14

ID                                       : 18

Format                                   : PGS

Muxing mode                              : zlib

Codec ID                                 : S_HDMV/PGS

Codec ID/Info                            : Picture based subtitle format used on BDs/HD-DVDs

Duration                                 : 1 h 41 min

Bit rate                                 : 28.0 kb/s

Count of elements                        : 2124

Stream size                              : 20.3 MiB (0%)

Title                                    : Estonian-PGS

Language                                 : Estonian

Default                                  : No

Forced                                   : No


Text #15

ID                                       : 19

Format                                   : PGS

Muxing mode                              : zlib

Codec ID                                 : S_HDMV/PGS

Codec ID/Info                            : Picture based subtitle format used on BDs/HD-DVDs

Duration                                 : 1 h 41 min

Bit rate                                 : 27.6 kb/s

Count of elements                        : 2028

Stream size                              : 19.9 MiB (0%)

Title                                    : Finnish-PGS

Language                                 : Finnish

Default                                  : No

Forced                                   : No


Text #16

ID                                       : 20

Format                                   : PGS

Muxing mode                              : zlib

Codec ID                                 : S_HDMV/PGS

Codec ID/Info                            : Picture based subtitle format used on BDs/HD-DVDs

Duration                                 : 1 h 41 min

Bit rate                                 : 31.0 kb/s

Count of elements                        : 2250

Stream size                              : 22.4 MiB (0%)

Title                                    : French-PGS

Language                                 : French

Default                                  : No

Forced                                   : No


Text #17

ID                                       : 21

Format                                   : PGS

Muxing mode                              : zlib

Codec ID                                 : S_HDMV/PGS

Codec ID/Info                            : Picture based subtitle format used on BDs/HD-DVDs

Duration                                 : 1 h 41 min

Bit rate                                 : 35.6 kb/s

Count of elements                        : 2240

Stream size                              : 25.7 MiB (0%)

Title                                    : German-PGS

Language                                 : German

Default                                  : No

Forced                                   : No


Text #18

ID                                       : 22

Format                                   : PGS

Muxing mode                              : zlib

Codec ID                                 : S_HDMV/PGS

Codec ID/Info                            : Picture based subtitle format used on BDs/HD-DVDs

Duration                                 : 1 h 41 min

Bit rate                                 : 35.4 kb/s

Count of elements                        : 2252

Stream size                              : 25.6 MiB (0%)

Title                                    : Greek-PGS

Language                                 : Greek

Default                                  : No

Forced                                   : No


Text #19

ID                                       : 23

Format                                   : PGS

Muxing mode                              : zlib

Codec ID                                 : S_HDMV/PGS

Codec ID/Info                            : Picture based subtitle format used on BDs/HD-DVDs

Duration                                 : 1 h 41 min

Bit rate                                 : 33.1 kb/s

Count of elements                        : 2244

Stream size                              : 23.9 MiB (0%)

Title                                    : Hungarian-PGS

Language                                 : Hungarian

Default                                  : No

Forced                                   : No


Text #20

ID                                       : 24

Format                                   : PGS

Muxing mode                              : zlib

Codec ID                                 : S_HDMV/PGS

Codec ID/Info                            : Picture based subtitle format used on BDs/HD-DVDs

Duration                                 : 1 h 41 min

Bit rate                                 : 30.4 kb/s

Count of elements                        : 1917

Stream size                              : 22.0 MiB (0%)

Title                                    : Italian-PGS

Language                                 : Italian

Default                                  : No

Forced                                   : No


Text #21

ID                                       : 25

Format                                   : PGS

Muxing mode                              : zlib

Codec ID                                 : S_HDMV/PGS

Codec ID/Info                            : Picture based subtitle format used on BDs/HD-DVDs

Duration                                 : 1 h 43 min

Bit rate                                 : 18.0 kb/s

Count of elements                        : 1947

Stream size                              : 13.4 MiB (0%)

Title                                    : Korean-PGS

Language                                 : Korean

Default                                  : No

Forced                                   : No


Text #22

ID                                       : 26

Format                                   : PGS

Muxing mode                              : zlib

Codec ID                                 : S_HDMV/PGS

Codec ID/Info                            : Picture based subtitle format used on BDs/HD-DVDs

Duration                                 : 1 h 41 min

Bit rate                                 : 27.3 kb/s

Count of elements                        : 2050

Stream size                              : 19.8 MiB (0%)

Title                                    : Latvian-PGS

Language                                 : Latvian

Default                                  : No

Forced                                   : No


Text #23

ID                                       : 27

Format                                   : PGS

Muxing mode                              : zlib

Codec ID                                 : S_HDMV/PGS

Codec ID/Info                            : Picture based subtitle format used on BDs/HD-DVDs

Duration                                 : 1 h 33 min

Bit rate                                 : 33.5 kb/s

Count of elements                        : 1938

Stream size                              : 22.4 MiB (0%)

Title                                    : Lithuanian-PGS

Language                                 : Lithuanian

Default                                  : No

Forced                                   : No


Text #24

ID                                       : 28

Format                                   : PGS

Muxing mode                              : zlib

Codec ID                                 : S_HDMV/PGS

Codec ID/Info                            : Picture based subtitle format used on BDs/HD-DVDs

Duration                                 : 1 h 31 min

Bit rate                                 : 32.3 kb/s

Count of elements                        : 1943

Stream size                              : 21.1 MiB (0%)

Title                                    : Norwegian-PGS

Language                                 : Norwegian

Default                                  : No

Forced                                   : No


Text #25

ID                                       : 29

Format                                   : PGS

Muxing mode                              : zlib

Codec ID                                 : S_HDMV/PGS

Codec ID/Info                            : Picture based subtitle format used on BDs/HD-DVDs

Duration                                 : 1 h 41 min

Bit rate                                 : 31.6 kb/s

Count of elements                        : 1941

Stream size                              : 22.8 MiB (0%)

Title                                    : Portuguese-PGS

Language                                 : Portuguese

Default                                  : No

Forced                                   : No


Text #26

ID                                       : 30

Format                                   : PGS

Muxing mode                              : zlib

Codec ID                                 : S_HDMV/PGS

Codec ID/Info                            : Picture based subtitle format used on BDs/HD-DVDs

Duration                                 : 1 h 41 min

Bit rate                                 : 30.9 kb/s

Count of elements                        : 1887

Stream size                              : 22.4 MiB (0%)

Title                                    : Portuguese-PGS

Language                                 : Portuguese

Default                                  : No

Forced                                   : No


Text #27

ID                                       : 31

Format                                   : PGS

Muxing mode                              : zlib

Codec ID                                 : S_HDMV/PGS

Codec ID/Info                            : Picture based subtitle format used on BDs/HD-DVDs

Duration                                 : 1 h 41 min

Bit rate                                 : 29.0 kb/s

Count of elements                        : 1900

Stream size                              : 21.0 MiB (0%)

Title                                    : Romanian-PGS

Language                                 : Romanian

Default                                  : No

Forced                                   : No


Text #28

ID                                       : 32

Format                                   : PGS

Muxing mode                              : zlib

Codec ID                                 : S_HDMV/PGS

Codec ID/Info                            : Picture based subtitle format used on BDs/HD-DVDs

Duration                                 : 1 h 41 min

Bit rate                                 : 35.4 kb/s

Count of elements                        : 2256

Stream size                              : 25.6 MiB (0%)

Title                                    : Russian-PGS

Language                                 : Russian

Default                                  : No

Forced                                   : No


Text #29

ID                                       : 33

Format                                   : PGS

Muxing mode                              : zlib

Codec ID                                 : S_HDMV/PGS

Codec ID/Info                            : Picture based subtitle format used on BDs/HD-DVDs

Duration                                 : 1 h 33 min

Bit rate                                 : 33.1 kb/s

Count of elements                        : 1961

Stream size                              : 22.1 MiB (0%)

Title                                    : Slovak-PGS

Language                                 : Slovak

Default                                  : No

Forced                                   : No


Text #30

ID                                       : 34

Format                                   : PGS

Muxing mode                              : zlib

Codec ID                                 : S_HDMV/PGS

Codec ID/Info                            : Picture based subtitle format used on BDs/HD-DVDs

Duration                                 : 1 h 41 min

Bit rate                                 : 30.3 kb/s

Count of elements                        : 1951

Stream size                              : 21.9 MiB (0%)

Title                                    : Spanish-PGS

Language                                 : Spanish

Default                                  : No

Forced                                   : No


Text #31

ID                                       : 35

Format                                   : PGS

Muxing mode                              : zlib

Codec ID                                 : S_HDMV/PGS

Codec ID/Info                            : Picture based subtitle format used on BDs/HD-DVDs

Duration                                 : 1 h 41 min

Bit rate                                 : 30.3 kb/s

Count of elements                        : 1943

Stream size                              : 21.9 MiB (0%)

Title                                    : Spanish-PGS

Language                                 : Spanish

Default                                  : No

Forced                                   : No


Text #32

ID                                       : 36

Format                                   : PGS

Muxing mode                              : zlib

Codec ID                                 : S_HDMV/PGS

Codec ID/Info                            : Picture based subtitle format used on BDs/HD-DVDs

Duration                                 : 1 h 41 min

Bit rate                                 : 27.1 kb/s

Count of elements                        : 1484

Stream size                              : 19.6 MiB (0%)

Title                                    : Swedish-PGS

Language                                 : Swedish

Default                                  : No

Forced                                   : No


Text #33

ID                                       : 37

Format                                   : PGS

Muxing mode                              : zlib

Codec ID                                 : S_HDMV/PGS

Codec ID/Info                            : Picture based subtitle format used on BDs/HD-DVDs

Duration                                 : 1 h 41 min

Bit rate                                 : 23.6 kb/s

Count of elements                        : 1963

Stream size                              : 17.1 MiB (0%)

Title                                    : Thai-PGS

Language                                 : Thai

Default                                  : No

Forced                                   : No


Text #34

ID                                       : 38

Format                                   : PGS

Muxing mode                              : zlib

Codec ID                                 : S_HDMV/PGS

Codec ID/Info                            : Picture based subtitle format used on BDs/HD-DVDs

Duration                                 : 1 h 41 min

Bit rate                                 : 30.5 kb/s

Count of elements                        : 1953

Stream size                              : 22.1 MiB (0%)

Title                                    : Turkish-PGS

Language                                 : Turkish

Default                                  : No

Forced                                   : No


Menu

00:00:00.000                             : en:0:00:00.000

00:09:32.863                             : en:0:09:32.863

00:13:13.083                             : en:0:13:13.083

00:15:36.894                             : en:0:15:36.894

00:19:35.340                             : en:0:19:35.340

00:24:57.454                             : en:0:24:57.454

00:34:36.991                             : en:0:34:36.991

00:40:45.109                             : en:0:40:45.109

00:43:59.303                             : en:0:43:59.303

00:52:21.805                             : en:0:52:21.805

00:58:33.927                             : en:0:58:33.927

01:06:37.785                             : en:1:06:37.785

01:11:43.257                             : en:1:11:43.257

01:17:50.874                             : en:1:17:50.874

01:22:39.621                             : en:1:22:39.621

01:28:34.309                             : en:1:28:34.309






1 个附件 售价 大小 下载 时间

Life.2017.2160p.BluRay.x265.10bit.SDR.DTS-HD.MA.TrueHD.7.1.Atmos-SWTYBLZ[btbtt.me].torrent 0 金币 119.81K 676 次 5天前

#1楼
发帖时间:2017-10-12 18:23:39   |   回复数:5
s3364500
一代宗师
感谢分享~~~~
5天前 #2楼
911degrees
一代宗师
非常感谢,谢谢分享
5天前 #3楼
liyouchai
超凡入圣№
谢谢楼主分享资源
5天前 #4楼
jokingcheung
一代宗师
谢谢分享
5天前 #5楼
blue23
超凡入圣№
感谢楼主分享
3天前 #6楼
游客组