aoloffline
版主

[2016] [欧美] [动作] [BD-2160P] [BT下载]惊天魔盗团2 2016.2160p.BluRay.x264.8bit.SDR.DTS-HD.MA.TrueHD.7.1.Atmos-SWT 38GB

-->

Now.You.See.Me.2.2016.2160p.BluRay.x264.8bit.SDR.DTS-HD.MA.TrueHD.7.1.Atmos-SWTYBLZ

◎译  名 惊天魔盗团2/非常盗2(港)/出神入化2(台)/惊天魔盗团:第二幕

◎片  名 Now You See Me 2

◎年  代 2016

◎产  地 美国

◎类  别 动作/冒险

◎语  言 英语/汉语普通话/粤语

◎上映日期 2016-06-10(美国)/2016-06-24(中国大陆)

◎IMDb评分  6.5/10 from 172,501 users

◎IMDb链接  http://www.imdb.com/title/tt3110958/

◎豆瓣评分 6.5/10 from 129,181 users

◎豆瓣链接 https://movie.douban.com/subject/25662337/

◎BT之家整理 http://www.btbtt.pw  

◎片  长 130分钟

◎导  演 朱浩伟 Jon M. Chu

◎主  演 杰西·艾森伯格 Jesse Eisenberg

      马克·鲁弗洛 Mark Ruffalo

      伍迪·哈里森 Woody Harrelson

      戴夫·弗兰科 Dave Franco

      丹尼尔·雷德克里夫 Daniel Radcliffe

      丽兹·卡潘 Lizzy Caplan

      周杰伦 Jay Chou

      桑娜·莱瑟 Sanaa Lathan

      迈克尔·凯恩 Michael Caine

      摩根·弗里曼 Morgan Freeman

      大卫·沃肖夫斯基 David Warshofsky

      周采芹 Tsai Chin

      理查德·莱恩 Richard Laing

      亨利·劳埃德-休斯 Henry Lloyd-Hughes


◎简  介


  该片讲述一群拥有超凡智慧与胆量的现代罗宾汉,运用魔术才华,与舞台之上劫富济贫,完成了一系列不可能的任务后又迎来一次危险的抢劫任务的故事。


Video
ID                                       : 1
Format                                   : AVC
Format/Info                              : Advanced Video Codec
Format profile                           : High@L5.1
Format settings, CABAC                   : Yes
Format settings, ReFrames                : 5 frames
Codec ID                                 : V_MPEG4/ISO/AVC
Duration                                 : 2 h 9 min
Bit rate                                 : 33.4 Mb/s
Width                                    : 3 840 pixels
Height                                   : 1 600 pixels
Display aspect ratio                     : 2.40:1
Frame rate mode                          : Constant
Frame rate                               : 23.976 (24000/1001) FPS
Color space                              : YUV
Chroma subsampling                       : 4:2:0
Bit depth                                : 8 bits
Scan type                                : Progressive
Bits/(Pixel*Frame)                       : 0.227
Stream size                              : 30.1 GiB (78%)
Title                                    : Now.You.See.Me.2.2016.2160p.BluRay.x264.8bit.SDR.DTS-HD.MA.TrueHD.7.1.Atmos-SWTYBLZ
Writing library                          : x264 core 148 r2748 97eaef2
Encoding settings                        : cabac=1 / ref=5 / deblock=1:-1:-1 / analyse=0x3:0x113 / me=umh / subme=10 / psy=1 / psy_rd=1.00:0.15 / mixed_ref=1 / me_range=48 / chroma_me=1 / trellis=2 / 8x8dct=1 / cqm=0 / deadzone=21,11 / fast_pskip=1 / chroma_qp_offset=-3 / threads=50 / lookahead_threads=4 / sliced_threads=0 / nr=0 / decimate=0 / interlaced=0 / bluray_compat=0 / constrained_intra=0 / bframes=3 / b_pyramid=2 / b_adapt=2 / b_bias=0 / direct=3 / weightb=1 / open_gop=0 / weightp=2 / keyint=250 / keyint_min=23 / scenecut=40 / intra_refresh=0 / rc_lookahead=50 / rc=crf / mbtree=1 / crf=18.0 / qcomp=0.60 / qpmin=0 / qpmax=69 / qpstep=4 / ip_ratio=1.40 / aq=1:1.00
Language                                 : English
Default                                  : Yes
Forced                                   : No

Audio #1
ID                                       : 2
Format                                   : TrueHD
Format profile                           : TrueHD+Atmos / TrueHD
Codec ID                                 : A_TRUEHD
Duration                                 : 2 h 9 min
Bit rate mode                            : Variable
Bit rate                                 : 4 673 kb/s
Maximum bit rate                         : 8 928 kb/s
Channel(s)                               : Object Based / 8 channels
Channel positions                        : Object Based / Front: L C R, Side: L R, Back: L R, LFE
Sampling rate                            :  / 48.0 kHz
Frame rate                               : 1 200.000 FPS (40 spf)
Compression mode                         : Lossless
Delay relative to video                  : 32 ms
Stream size                              : 4.22 GiB (11%)
Title                                    : Now.You.See.Me.2.2016.2160p.BluRay.x264.8bit.SDR.DTS-HD.MA.TrueHD.7.1.Atmos-SWTYBLZ
Language                                 : English
Default                                  : Yes
Forced                                   : No

Audio #2
ID                                       : 3
Format                                   : DTS
Format/Info                              : Digital Theater Systems
Format profile                           : MA / Core
Mode                                     : 16
Format settings, Endianness              : Big
Codec ID                                 : A_DTS
Duration                                 : 2 h 9 min
Bit rate mode                            : Variable / Constant
Bit rate                                 : 3 719 kb/s / 1 509 kb/s
Channel(s)                               : 8 channels / 6 channels
Channel positions                        : Front: L C R, Side: L R, Back: L R, LFE / Front: L C R, Side: L R, LFE
Sampling rate                            : 48.0 kHz
Frame rate                               : 93.750 FPS (512 spf)
Bit depth                                : 24 bits
Compression mode                         : Lossless / Lossy
Stream size                              : 3.36 GiB (9%)
Title                                    : Now.You.See.Me.2.2016.2160p.BluRay.x264.8bit.SDR.DTS-HD.MA.TrueHD.7.1.Atmos-SWTYBLZ
Language                                 : English
Default                                  : No
Forced                                   : No

Audio #3
ID                                       : 4
Format                                   : AC-3
Format/Info                              : Audio Coding 3
Format settings, Endianness              : Big
Codec ID                                 : A_AC3
Duration                                 : 2 h 9 min
Bit rate mode                            : Constant
Bit rate                                 : 640 kb/s
Channel(s)                               : 6 channels
Channel positions                        : Front: L C R, Side: L R, LFE
Sampling rate                            : 48.0 kHz
Frame rate                               : 31.250 FPS (1536 spf)
Bit depth                                : 16 bits
Compression mode                         : Lossy
Delay relative to video                  : 31 ms
Stream size                              : 592 MiB (2%)
Title                                    : Now.You.See.Me.2.2016.2160p.BluRay.x264.8bit.SDR.DTS-HD.MA.TrueHD.7.1.Atmos-SWTYBLZ
Language                                 : English
Service kind                             : Complete Main
Default                                  : No
Forced                                   : No

Text #1
ID                                       : 5
Format                                   : UTF-8
Codec ID                                 : S_TEXT/UTF8
Codec ID/Info                            : UTF-8 Plain Text
Duration                                 : 2 h 0 min
Bit rate                                 : 81 b/s
Count of elements                        : 1915
Stream size                              : 71.7 KiB (0%)
Title                                    : English-SRT
Language                                 : English
Default                                  : Yes
Forced                                   : No

Text #2
ID                                       : 6
Format                                   : PGS
Muxing mode                              : zlib
Codec ID                                 : S_HDMV/PGS
Codec ID/Info                            : Picture based subtitle format used on BDs/HD-DVDs
Duration                                 : 2 h 0 min
Bit rate                                 : 46.8 kb/s
Count of elements                        : 3830
Stream size                              : 40.2 MiB (0%)
Title                                    : English-PGS
Language                                 : English
Default                                  : No
Forced                                   : No

Text #3
ID                                       : 7
Format                                   : PGS
Muxing mode                              : zlib
Codec ID                                 : S_HDMV/PGS
Codec ID/Info                            : Picture based subtitle format used on BDs/HD-DVDs
Duration                                 : 2 h 0 min
Bit rate                                 : 51.3 kb/s
Count of elements                        : 4232
Stream size                              : 44.1 MiB (0%)
Title                                    : English-SDH-PGS
Language                                 : English
Default                                  : No
Forced                                   : No

Text #4
ID                                       : 8
Format                                   : PGS
Muxing mode                              : zlib
Codec ID                                 : S_HDMV/PGS
Codec ID/Info                            : Picture based subtitle format used on BDs/HD-DVDs
Duration                                 : 2 h 0 min
Bit rate                                 : 43.3 kb/s
Count of elements                        : 3778
Stream size                              : 37.2 MiB (0%)
Title                                    : Spanish-PGS
Language                                 : Spanish
Default                                  : No
Forced                                   : No

Text #5
ID                                       : 9
Format                                   : PGS
Muxing mode                              : zlib
Codec ID                                 : S_HDMV/PGS
Codec ID/Info                            : Picture based subtitle format used on BDs/HD-DVDs
Duration                                 : 1 h 43 min
Bit rate                                 : 311 b/s
Count of elements                        : 32
Stream size                              : 235 KiB (0%)
Title                                    : French-PGS
Language                                 : French
Default                                  : No
Forced                                   : No

Menu
00:00:00.000                             : en:Chapter 1
00:07:05.133                             : en:Chapter 2
00:16:03.837                             : en:Chapter 3
00:25:29.569                             : en:Chapter 4
00:33:16.828                             : en:Chapter 5
00:39:57.645                             : en:Chapter 6
00:48:07.718                             : en:Chapter 7
00:53:34.711                             : en:Chapter 8
01:03:53.246                             : en:Chapter 9
01:14:00.561                             : en:Chapter 10
01:20:23.568                             : en:Chapter 11
01:26:37.400                             : en:Chapter 12
01:32:37.051                             : en:Chapter 13
01:38:46.837                             : en:Chapter 14
01:48:13.528                             : en:Chapter 15
01:54:04.921                             : en:Chapter 16






1 个附件 售价 大小 下载 时间

Now.You.See.Me.2.2016.2160p.BluRay.x264.8bit.SDR.DTS-HD.MA.TrueHD.7.1.Atmos-SWTYBLZ[btbtt.me].torrent 0 金币 97.29K 1258 次 2月前

#1楼
发帖时间:2017-10-13 00:45:53   |   回复数:4
911degrees
超凡入圣№
非常感谢,谢谢分享
2月前 #2楼
liyouchai
超凡入圣№
谢谢楼主分享资源
2月前 #3楼
blue23
隐世仙人♂
感谢楼主分享
2月前 #4楼
jokingcheung
一代宗师
谢谢分享
1月前 #5楼
游客组