来自猩猩的你4444
武林高手

[2011] [欧美] [战争] [BD-Remux] [BT下载]利迪策大屠杀.Lidice.2011.1080p.BluRay.REMUX.AVC.DTS-5.1.CHS-CZE.LANG 26.6GB

-->


◎译  名 利迪策大屠杀/没有光的晴天(港)

◎片  名 Lidice

◎年  代 2011

◎产  地 捷克

◎类  别 剧情/历史/战争

◎语  言 捷克语

◎上映日期 2011-06-02(捷克)

◎IMDb评分  6.9/10 from 1,007 users

◎IMDb链接  http://www.imdb.com/title/tt1754123/

◎豆瓣评分 7.7/10 from 785 users

◎豆瓣链接 https://movie.douban.com/subject/6724955/

◎片  长 120分钟

◎导  演 Petr Nikolaev

◎主  演 Karel Roden

      Zuzana Fialová

      Zuzana Bydžovská

      Roman Luknár

      Ondřej Novák Karel

      Veronika Kubařová

      Norbert Lichý

      Jan Budař

      Václav Jiráček


◎简  介


  1942年5月27日,莱因哈德·海德里希在布拉格被捷克特工刺杀后,希特勒感到非常恼怒,在海德里希的葬礼上,希特勒就咆哮着说要采取报复行动,叫嚣着要用千百万人的血来作为偿还海德里希被谋杀的代价。 居住在特瑞金斯塔特“特别居留区”里的约3000名犹太人被送到了死亡营,未知的还不知道有多少。 布拉格的党卫军个个惊恐万状。 他们深知:如果在缉捕刺杀海德里希凶手的行动中毫无结果的话,毫无疑问会触发希特勒对于导致行动失败的负责人的杀人欲。 亚瑟·内伯,以帝国中央安全局的名义命令紧急印制了大量德意志刑警报特刊,上面载有发给各地警察局和地方行政长官的电传电报,指示:“要在各个车站、火车上以及所有交通工具上实施特别监视;要对所有在工人旅馆居住的外国人进行登记检查;不准任何嫌疑人越过边境。”盖世太保以无情的高效率为刺客布下了一张天罗地网。

  莱因哈德·海德里希对于希特勒来讲,海德里希之死需要远比犹太人的死更大的代价。 最为残暴的一次报复行动,一次捷克人民永远不会让世人忘记的屠杀。

  此次报复的目标是位于布拉格西北部科拉迪诺地区的一个名叫利迪泽的矿山小村庄。 利迪泽是个美丽的地方,坐落在一个低矮的峡谷内,小村庄教堂的四周点缀着片片草地,风景旖旎,色彩斑斓。 村庄周围布满了大大小小的牧场和果园,村民们的生活过的非常平静,自给自足,对政治则兴趣索然。

  6月4日,海德里希死的那天,利迪泽遭到了第一次搜查。 但是的目击者对于一队驻布拉格的党卫军和盖世太保怎样从大路上开过来,怎样肆无忌惮地闯进村庄,又是怎样对这里的居民排好队逐一检查证明身份的情形至今记忆犹新。 由党卫军和盖世太保负责进行讯问。 自始至终,充斥着威胁和恐吓,但总的说,利迪泽的居民们并没有受到太大的伤害。 也许是为了取乐,也许因为未找到任何武器装备和证明有罪的“证据”而大为恼火,国防军和警察分遣队闯进居民们整洁别致的家中或是大肆抢劫物品,或是将家具陈设砸得粉碎扔到大街上。 显而易见,对于盖世太保来说,“证据”是可以伪造的。 德国国防军的卡车终于一路呼啸着返回了布拉格。

  在利迪泽村和海德里希被谋杀二者之间没有发现任何形式上的联系。 之所以选择这个村庄作为目标的一个借口就是,居住在次地的两个家庭——荷科拉一家和斯特里伯尼一家,他们的儿子在英国是捷克地下抵抗组织的成员。 此外,德国人还声称在这个村庄里藏有机枪,而且英捷伞兵曾在这一地区着陆。 然而对这些指控,直到今天,在此后的大屠杀中幸存下来的人们仍然绝对否认。 最后,荷科拉和斯特里伯尼两家人遭到逮捕,但没有找到降落伞的蛛丝马迹。

  第二次关键性的侵入利迪泽是在6月9日夜里。 有卡尔·博姆“倡议”,在为海德里希举行葬礼的那天,他打电话给柏林的希姆莱告知有足够的“证据”指控该村庄,并建议采取报复行动。 博姆报告说:目标:科拉迪诺地区的利迪泽村。

  1942年6月9日19点45分,党卫军地区总队长卡尔·弗朗克从柏林打来电话口头指示:今天遵照元首的命令,应对利迪泽村采取以下措施:

  第一, 枪毙所有的成年男性居民;

  第二, 将所有女性居民都关入集中营;

  第三, 将儿童集中到一起,合格的送到帝国党卫军家中接受德国化教育;余下的不适合进行德国化教育的儿童要进行其他形式的教育;

  第四, 需要借助消防队将这个地方整个烧毁,夷为平地。

  博姆出发去科拉迪诺亲自指挥这次行动,随行的有布拉格的盖世太保头子奥托·格施克博士以及科拉迪诺地区的盖世太保头子维斯曼。 科拉迪诺地区的常规警察已将村子围得水泄不通,只留下一个口允许居民们进入。 接着,一队保安警察在党卫军小队长马克斯·罗斯托克的带领下开进利迪泽。

  之后,盖世太保报告:在此次行动中,199名男性村民被处决,195名女性村民被逮捕。 从布拉格调来的特别行刑队在谷仓四周的墙上竖起一排床垫,以防止反弹回来的流弹。 他们将成年男子和男孩子挑出来,一次枪毙10个,女人、小男孩和儿童则被送到中转营;女人们最终被送到拉文斯布拉克集中营,在95名儿童当中,最后有9名被认为值得接受德国化教育;而大多数的儿童以经销声匿迹了,二战后,仅找到其中的16名。 被选中的9名儿童将要移交给育儿组织—— 一个受到希姆莱青睐的,关于母性家庭以及给予那些由党卫军做父亲的孩子们福利的体系。

  然而,整个村庄被付之一炬,该炸的炸掉,该铲的被推土机铲平,瓦砾也被运走。 家禽、宠物被射杀,墓地被掘开。 出了一个不久就会杂草丛生的平原以外,这一村庄的存在痕迹消失得干干净净。 第二天,一个早已拟好的稿子在广播中播出:“在搜捕刺杀党卫军上将海德里希的凶手的过程中,有充分事实证明该村居民支持并给予这些凶手以帮助。除了帮助凶手以外,这些居民还参与了其他敌视德国的行动。例如,私藏弹药和武器装备、违法持有发报机并囤积大量特殊的国控物资……村庄里所有的建筑现已拆除,该村的名字也被抹掉。”

  然而,在某种意义上讲,利迪泽村并没有消失。 德国人自己要对此疏漏负责。 大量描述这次大屠杀的细节都已被帝国电影公司摄入了老式的镜头。 记录利迪泽村大屠杀的有关电影胶片在纽伦堡军事法庭上成为对纳粹战犯进行审判的铁的事实和证据。 永久保留下来的仅仅是是这个村庄的的最后时刻:利迪泽村熊熊燃烧的房屋、穿梭于街道之中的巡逻军队和警察,当然还有荷拉克家牧场上的尸体堆。 一条用链子栓住在狗舍里的狗的尸体也被摄入镜头;接着镜头透过双筒望远镜摇向一个德国军官:镜头里,村中教堂的塔楼被炸了三次才倒塌;显然这个军官十分恼火;牧师早已遇害,影片同样记录了毁灭者自身的“形象”:他们好象在制作家庭电影一样,对着摄影机大笑着,彼此还开着玩笑。

  为了不留下任何痕迹,盖世太保从特瑞金附近的犹太人居留区抓来了大批的劳工,并强迫他们在利迪泽村建立了一条专门的铁路,用途是把利迪泽村的瓦砾统统运走,每天有大批的废砖瓦从利迪泽运出,当工作快要完工的时候,那些劳工一部分被送进了集中营和死亡营,还有一批人被就地枪决,枪决以后,尸体被焚烧后就地掩埋。

  令盖世太保十分恼怒的是,在利迪泽村和其他地方刻意营造的白色恐怖未能打草惊蛇出刺客。 已经采用并审查完毕的有关报道也变得毫无价值。 海因茨·冯·潘维茨——布拉格市盖世太保反颠覆科的负责人向弗朗克建议:在指定时期内,对任何准备坦白自首的人实行赦免。 海因茨最终说服弗朗克以5天为限,并于6月13日发布赦免公告。

  6月18日,盖世太保在卡莱尔·布罗梅杰斯基教堂的地下室中发现了7名刺客,在经过一阵枪战以后,7名特工无一幸免,两人服毒自杀,其余的都用自己的枪结束了生命。 最后,盖世太保将刺客——捷克准尉詹·库比斯的头割了下来,拿给了他的家人看,他年迈的母亲当场就昏了过去。

  刺杀海德里希的案件就此结束,利迪泽村也从地图上消失了,但在二战后,捷克人开始重建利迪泽村,原居民回到原来的地方时,只看见一片荒芜的草地。 工人们在挖掘的工程中发掘出了一块利迪泽村古老的村标,至今,这块象征利迪泽村的村标还保留在原地。

  毁灭与重生

  盖世太保把利迪策村全部夷为平地、妄图从地球上将其消灭的作法激起了全世界各国人民的愤怒。 6月12日,利迪策惨案的消息刚一传开,美国依利诺斯州的一个小镇就宣布改名叫利迪策。 一个月后,墨西哥首都附近的圣何罗尼莫也改名为利迪策,现在,这里已经发展成为200万人口的大城市。 紧接着,巴西、委内瑞拉、以色列、南非的一些村庄,以及其他地方的广场、街道、甚至女孩的名字,都开始叫利迪策。 世界各个角落的人们虽然互不相识,但为了反法西斯这个目标,都不约而同地群起声援陷入苦难中的捷克人民。

  自1948年开始,来自世界各国的志愿者在这片废墟旁边建设起崭新的利迪策村。 在旧村和新村中间,由一片美丽的玫瑰园架起了幸福的桥梁。 这些玫瑰的种子是世界各国爱好和平的人们赠送的,其中还有来自中国的祝福。 现在的旧村废墟早已被大片翠绿的草坪所覆盖,在起伏的山坡中点缀着茵茵绿树和金色池塘,使人俨然置身于人间天堂。 这不仅令人感慨万分,只有和平才能带来如此美好世界,有了和平人类才有希望。


General

Unique ID                      : 179070564470502204197402916283534986740 (0x86B7BC7962DE72769CE712F37FC6CDF4)

Complete name                  : F:\迅雷下载\利迪策大屠杀.Lidice.2011.1080p.BluRay.REMUX.AVC.DTS-5.1.CHS-CZE.LANG.mkv

Format                         : Matroska

Format version                 : Version 4 / Version 2

File size                      : 26.7 GiB

Duration                       : 2 h 5 min

Overall bit rate               : 30.4 Mb/s

Encoded date                   : UTC 2017-10-26 05:19:11

Writing application            : mkvmerge v13.0.0 ('The Juggler') 64bit

Writing library                : libebml v1.3.4 + libmatroska v1.4.5


Video

ID                             : 1

Format                         : VC-1

Format profile                 : [email protected]

Codec ID                       : V_MS/VFW/FOURCC / WVC1

Codec ID/Hint                  : Microsoft

Duration                       : 2 h 5 min

Bit rate                       : 26.0 Mb/s

Width                          : 1 920 pixels

Height                         : 1 080 pixels

Display aspect ratio           : 16:9

Frame rate mode                : Constant

Frame rate                     : 24.000 FPS

Color space                    : YUV

Chroma subsampling             : 4:2:0

Bit depth                      : 8 bits

Scan type                      : Progressive

Compression mode               : Lossy

Bits/(Pixel*Frame)             : 0.522

Stream size                    : 22.8 GiB (86%)

Language                       : Czech

Default                        : Yes

Forced                         : No


Audio #1

ID                             : 2

Format                         : DTS

Format/Info                    : Digital Theater Systems

Format profile                 : MA / Core

Mode                           : 16

Format settings, Endianness    : Big

Codec ID                       : A_DTS

Duration                       : 2 h 5 min

Bit rate mode                  : Variable / Constant

Bit rate                       : 3 688 kb/s / 1 509 kb/s

Channel(s)                     : 6 channels

Channel positions              : Front: L C R, Side: L R, LFE

Sampling rate                  : 48.0 kHz

Frame rate                     : 93.750 FPS (512 SPF)

Bit depth                      : 24 bits

Compression mode               : Lossless / Lossy

Stream size                    : 3.24 GiB (12%)

Title                          : 捷克语

Language                       : Czech

Default                        : Yes

Forced                         : Yes


Audio #2

ID                             : 3

Format                         : AC-3

Format/Info                    : Audio Coding 3

Format settings, Endianness    : Big

Codec ID                       : A_AC3

Duration                       : 2 h 5 min

Bit rate mode                  : Constant

Bit rate                       : 448 kb/s

Channel(s)                     : 2 channels

Channel positions              : Front: L R

Sampling rate                  : 48.0 kHz

Frame rate                     : 31.250 FPS (1536 SPF)

Bit depth                      : 16 bits

Compression mode               : Lossy

Stream size                    : 403 MiB (1%)

Title                          : 国语

Language                       : Chinese

Service kind                   : Complete Main

Default                        : No

Forced                         : No


Audio #3

ID                             : 4

Format                         : AC-3

Format/Info                    : Audio Coding 3

Format settings, Endianness    : Big

Codec ID                       : A_AC3

Duration                       : 2 h 5 min

Bit rate mode                  : Constant

Bit rate                       : 224 kb/s

Channel(s)                     : 2 channels

Channel positions              : Front: L R

Sampling rate                  : 48.0 kHz

Frame rate                     : 31.250 FPS (1536 SPF)

Bit depth                      : 16 bits

Compression mode               : Lossy

Stream size                    : 201 MiB (1%)

Title                          : 俄语

Language                       : Russian

Service kind                   : Complete Main

Default                        : No

Forced                         : No


Text #1

ID                             : 5

Format                         : ASS

Codec ID                       : S_TEXT/ASS

Codec ID/Info                  : Advanced Sub Station Alpha

Duration                       : 1 h 59 min

Bit rate                       : 120 b/s

Count of elements              : 849

Compression mode               : Lossless

Stream size                    : 105 KiB (0%)

Title                          : 国捷双语

Language                       : Chinese

Default                        : Yes

Forced                         : Yes


Text #2

ID                             : 6

Format                         : PGS

Muxing mode                    : zlib

Codec ID                       : S_HDMV/PGS

Codec ID/Info                  : Picture based subtitle format used on BDs/HD-DVDs

Duration                       : 1 h 59 min

Bit rate                       : 16.5 kb/s

Count of elements              : 1688

Stream size                    : 14.1 MiB (0%)

Title                          : 俄语

Language                       : Russian

Default                        : No

Forced                         : No









1 个附件 售价 大小 下载 时间

利迪策大屠杀.Lidice.2011.1080p.BluRay.REMUX.AVC.DTS-5.1.CHS-CZE.LANG.torrent 0 金币 140.06K 5143 次 2017-10-26

#1楼
发帖时间:2017-10-26 14:06:10   |   回复数:5
linyihuangwei
武林盟主
谢谢分享
2017-10-26 #2楼
911degrees
隐世仙人♂
非常感谢,谢谢分享
2017-10-26 #3楼
blue23
隐世仙人♂
感谢楼主分享
2017-10-26 #4楼
liyouchai
隐世仙人♂
谢谢楼主分享资源
2017-10-27 #5楼
jokingcheung
一代宗师
谢谢分享
2017-10-28 #6楼
游客组