aoloffline
版主

[更 早] [欧美] [恐怖] [WEB-720P] [BT下载]洞/凶洞/恐怖洞/鬼地方 The.Hole.2001.720p.WEB.H264-STRiFE 2.63GB

-->



◎译  名 洞/凶洞/恐怖洞/鬼地方

◎片  名 The Hole

◎年  代 2001

◎产  地 英国

◎类  别 剧情/恐怖/悬疑/惊悚

◎语  言 英语

◎上映日期 2001-12-13

◎IMDb评分  6.2/10 from 40,699 users

◎IMDb链接  http://www.imdb.com/title/tt0242527/

◎豆瓣评分 6.6/10 from 1,648 users

◎豆瓣链接 https://movie.douban.com/subject/1306528/

◎BT之家整理 http://www.btbtt.me/

◎片  长 102 分钟

◎导  演 Nick Hamm

◎主  演 Thora Birch

      凯拉·奈特莉 Keira Knightley

      Embeth Davidtz

      Desmond Harrington

      Daniel Brocklebank

      劳伦斯·福克斯 Laurence Fox


◎简  介


  一个名叫莉兹(索拉·伯奇 Thora Birch 饰)的女孩刚刚经历了人生中最可怕的一段时光,在心理学家菲丽帕(艾伯丝·戴维兹 Embeth Davidtz 饰)的循循善诱下,她终于决定将她的经历公诸于众。在莉兹、麦克(戴斯蒙德·哈灵顿 Desmond Harrington 饰)和马丁(Daniel Brocklebank 饰)这一女两男之间,存在着一段复杂的三角关系,莉兹迷恋麦克,马丁则对莉兹穷追不舍。在一个偶然发现的地下堡垒中,麦克和朋友们决定开一个为期三天的秘密派对,莉兹也加入到了其中。

  就在年轻人们尽情狂欢之后,他们震惊的发现,地堡的唯一出口被封死了。莉兹认为这是马丁出于嫉妒所为,在经历了一番波折之后,莉兹和麦克终于逃出生天。可是,根据警方的调查,麦克早已经死在了地堡之中,而当警方找到马丁之时,从马丁口中听到的,竟然是一个与莉兹所述截然不同的故事。到底是谁在撒谎?真相又究竟是怎样的呢?



Video
ID                                       : 1
Format                                   : AVC
Format/Info                              : Advanced Video Codec
Format profile                           : High@L3.1
Format settings                          : CABAC / 5 Ref Frames
Format settings, CABAC                   : Yes
Format settings, RefFrames               : 5 frames
Codec ID                                 : V_MPEG4/ISO/AVC
Duration                                 : 1 h 42 min
Bit rate mode                            : Variable
Bit rate                                 : 3 452 kb/s
Maximum bit rate                         : 4 500 kb/s
Width                                    : 1 280 pixels
Height                                   : 720 pixels
Display aspect ratio                     : 16:9
Frame rate mode                          : Constant
Frame rate                               : 23.976 (24000/1001) FPS
Color space                              : YUV
Chroma subsampling                       : 4:2:0
Bit depth                                : 8 bits
Scan type                                : Progressive
Bits/(Pixel*Frame)                       : 0.156
Stream size                              : 2.47 GiB (94%)
Language                                 : English
Default                                  : Yes
Forced                                   : No
Color range                              : Limited
Color primaries                          : BT.709
Transfer characteristics                 : BT.709
Matrix coefficients                      : BT.709

Audio
ID                                       : 2
Format                                   : E-AC-3
Format/Info                              : Enhanced Audio Coding 3
Format settings, Endianness              : Big
Codec ID                                 : A_EAC3
Duration                                 : 1 h 42 min
Bit rate mode                            : Constant
Bit rate                                 : 224 kb/s
Channel(s)                               : 2 channels
Channel positions                        : Front: L R
Sampling rate                            : 48.0 kHz
Frame rate                               : 187.500 FPS (256 SPF)
Compression mode                         : Lossy
Delay relative to video                  : 3 ms
Stream size                              : 164 MiB (6%)
Language                                 : English
Service kind                             : Complete Main
Default                                  : Yes
Forced                                   : No

Text
ID                                       : 3
Format                                   : UTF-8
Codec ID                                 : S_TEXT/UTF8
Codec ID/Info                            : UTF-8 Plain Text
Duration                                 : 1 h 36 min
Bit rate                                 : 60 b/s
Count of elements                        : 1533
Stream size                              : 42.3 KiB (0%)
Language                                 : English
Default                                  : No
Forced                                   : No



1 个附件 售价 大小 下载 时间

The.Hole.2001.720p.WEB.H264-STRiFE[btbtt.me].torrent 0 金币 105.96K 679 次 4天前

#1楼
发帖时间:2017-11-15 13:33:04   |   回复数:3
911degrees
一代宗师
非常感谢,谢谢分享
4天前 #2楼
blue23
隐世仙人♂
感谢楼主分享
3天前 #3楼
liyouchai
超凡入圣№
谢谢楼主分享资源
3天前 #4楼
游客组