aoloffline
版主

[更 早] [欧美] [喜剧] [WEB-1080P] [BT下载]冒牌高手 Safe.Men.1998.1080p.WEB.H264-STRiFE 5.81GB

-->

◎译  名 冒牌高手

◎片  名 Safe Men

◎年  代 1998

◎产  地 美国

◎类  别 喜剧/犯罪

◎语  言 英语

◎上映日期 1998-08-07

◎IMDb评分  6.0/10 from 2,870 users

◎IMDb链接  http://www.imdb.com/title/tt0120813/

◎豆瓣评分 6.3/10 from 21 users

◎豆瓣链接 https://movie.douban.com/subject/1306115/

◎BT之家整理 http://www.btbtt.me/

◎片  长 88 分钟

◎导  演 John Hamburg

◎主  演 Mark Ruffalo

      哈韦·菲尔斯泰

      斯蒂夫·赞恩

      山姆·洛克威尔 Sam Rockwell


◎简  介


  两个没有天赋的歌手塞缪尔和埃迪被卓普设计陷害去撬保险箱,从而被卓普的老大——黑手党老大误认为他们两人的能帮助他撬开保险柜,紧接着,两人的出人意料的命运开始了……


Video
ID                                       : 1
Format                                   : AVC
Format/Info                              : Advanced Video Codec
Format profile                           : High@L4
Format settings                          : CABAC / 4 Ref Frames
Format settings, CABAC                   : Yes
Format settings, RefFrames               : 4 frames
Codec ID                                 : V_MPEG4/ISO/AVC
Duration                                 : 1 h 27 min
Bit rate mode                            : Variable
Bit rate                                 : 8 839 kb/s
Maximum bit rate                         : 15.0 Mb/s
Width                                    : 1 920 pixels
Height                                   : 1 080 pixels
Display aspect ratio                     : 16:9
Frame rate mode                          : Constant
Frame rate                               : 23.976 (24000/1001) FPS
Color space                              : YUV
Chroma subsampling                       : 4:2:0
Bit depth                                : 8 bits
Scan type                                : Progressive
Bits/(Pixel*Frame)                       : 0.178
Stream size                              : 5.42 GiB (93%)
Language                                 : English
Default                                  : Yes
Forced                                   : No
Color range                              : Limited
Color primaries                          : BT.709
Transfer characteristics                 : BT.709
Matrix coefficients                      : BT.709

Audio
ID                                       : 2
Format                                   : E-AC-3
Format/Info                              : Enhanced Audio Coding 3
Format settings, Endianness              : Big
Codec ID                                 : A_EAC3
Duration                                 : 1 h 27 min
Bit rate mode                            : Constant
Bit rate                                 : 640 kb/s
Channel(s)                               : 6 channels
Channel positions                        : Front: L C R, Side: L R, LFE
Sampling rate                            : 48.0 kHz
Frame rate                               : 187.500 FPS (256 SPF)
Compression mode                         : Lossy
Delay relative to video                  : 12 ms
Stream size                              : 402 MiB (7%)
Language                                 : English
Service kind                             : Complete Main
Default                                  : Yes
Forced                                   : No

Text
ID                                       : 3
Format                                   : UTF-8
Codec ID                                 : S_TEXT/UTF8
Codec ID/Info                            : UTF-8 Plain Text
Duration                                 : 1 h 27 min
Bit rate                                 : 90 b/s
Count of elements                        : 1531
Stream size                              : 57.9 KiB (0%)
Language                                 : English
Default                                  : No
Forced                                   : No



1 个附件 售价 大小 下载 时间

Safe.Men.1998.1080p.WEB.H264-STRiFE[btbtt.me].torrent 0 金币 116.76K 322 次 3天前

#1楼
发帖时间:2017-11-15 13:37:59   |   回复数:4
911degrees
一代宗师
非常感谢,谢谢分享
3天前 #2楼
blue23
隐世仙人♂
感谢楼主分享
3天前 #3楼
liyouchai
超凡入圣№
谢谢楼主分享资源
3天前 #4楼
jokingcheung
一代宗师
谢谢分享
2天前 #5楼
游客组